Tags
Language
Tags

ABC - Four Corners: The Pandora Papers (2021)

Posted By: notbanned
1080p (FullHD) / HDTV
ABC - Four Corners: The Pandora Papers (2021)

ABC - Four Corners: The Pandora Papers (2021)
HDTV | 1920x1080 | .MKV/AVC @ 2688 Kbps | 42 min 35 s | 898 MiB
Audio: English MP2 256 kbps, 2 channels | Subs: English
Genre: Documentary

In a major international investigation Four Corners reveals the secrets of the Pandora Papers. Despite authorities promising to close loop holes and crack down on the myriad of offshore services, this industry is flourishing.

General
Unique ID : 318913076942177276796518499362064660024 (0xEFEC6CA903C90BBD82C8FADBB4917638)
Complete name : Four.Corners.The.Pandora.Papers.1080p.mkv
Format : Matroska
Format version : Version 4 / Version 2
File size : 898 MiB
Duration : 42 min 35 s
Overall bit rate : 2 947 kb/s

Video
ID : 1
Format : AVC
Format/Info : Advanced Video Codec
Format profile : High@L4
Format settings, CABAC : Yes
Format settings, ReFrames : 4 frames
Codec ID : V_MPEG4/ISO/AVC
Duration : 42 min 35 s
Bit rate : 2 688 kb/s
Width : 1 920 pixels
Height : 1 080 pixels
Display aspect ratio : 16:9
Frame rate mode : Constant
Frame rate : 25.000 FPS
Standard : Component
Color space : YUV
Chroma subsampling : 4:2:0
Bit depth : 8 bits
Scan type : MBAFF
Scan type, store method : Interleaved fields
Scan order : Top Field First
Bits/(Pixel*Frame) : 0.052
Stream size : 819 MiB (91%)
Default : Yes
Forced : No
Color range : Limited

Audio
ID : 2
Format : MPEG Audio
Format version : Version 1
Format profile : Layer 2
Codec ID : A_MPEG/L2
Codec ID/Hint : MP2
Duration : 42 min 35 s
Bit rate mode : Constant
Bit rate : 256 kb/s
Channel(s) : 2 channels
Sampling rate : 48.0 kHz
Frame rate : 41.667 FPS (1152 spf)
Compression mode : Lossy
Stream size : 78.0 MiB (9%)
Language : English
Default : Yes
Forced : No

Text
ID : 3
Format : UTF-8
Codec ID : S_TEXT/UTF8
Codec ID/Info : UTF-8 Plain Text
Duration : 42 min 9 s
Bit rate : 145 b/s
Count of elements : 940
Stream size : 44.8 KiB (0%)
Language : English
Default : No
Forced : No


Screenshots:

ABC - Four Corners: The Pandora Papers (2021)

ABC - Four Corners: The Pandora Papers (2021)

ABC - Four Corners: The Pandora Papers (2021)

ABC - Four Corners: The Pandora Papers (2021)