Foxtrot (2017)

Posted By: Tavaz
720p (HD) / BDRip IMDb
Foxtrot (2017)

Foxtrot (2017)
BDRip | MKV | 1280x720 | Hebrew | H264 @ 6586 kbps | DTS @ 1509 kbps | 1 h 52 min | 6.37 GiB
Genre: Drama

Michael and Daphna receive terrible news about their soldier son, who serves in a desolate checkpoint in the middle of nowhere.

0f0a068ae4094710a111836ceae66fa9.mkv (6.4 GB)



General
Unique ID : 45462981326481818225805926645148265328 (0x2233DA09A6EE16CCCE805CB93239AB70)
Complete name : ./0f0a068ae4094710a111836ceae66fa9.mkv
Format : Matroska
Format version : Version 4 / Version 2
File size : 6.37 GiB
Duration : 1 h 52 min
Overall bit rate : 8 095 kb/s
Movie name : Foxtrot 2017 1080p Blu-ray Remux AVC DTS-HD MA 5.1 - KRaLiMaRKo
Encoded date : UTC 2019-03-04 17:39:30 / UTC 2019-03-04T15:17:49Z
Writing application : mkvmerge v6.7.0 ('Back to the Ground') 64bit built on Jan 9 2014 18:03:17
Writing library : libebml v1.3.0 + libmatroska v1.4.1 / Lavf57.7.2

Video
ID : 2
Format : AVC
Format/Info : Advanced Video Codec
Format profile : High@L4.1
Format settings : CABAC / 4 Ref Frames
Format settings, CABAC : Yes
Format settings, RefFrames : 4 frames
Codec ID : V_MPEG4/ISO/AVC
Duration : 1 h 52 min
Bit rate : 6 586 kb/s
Width : 1 280 pixels
Height : 720 pixels
Display aspect ratio : 16:9
Frame rate mode : Constant
Frame rate : 24.000 FPS
Color space : YUV
Chroma subsampling : 4:2:0
Bit depth : 8 bits
Scan type : Progressive
Bits/(Pixel*Frame) : 0.298
Stream size : 5.05 GiB (79%)
Writing library : x264 core 142 r2389 956c8d8
Encoding settings : cabac=1 / ref=3 / deblock=1:0:0 / analyse=0x3:0x113 / me=hex / subme=7 / psy=1 / psy_rd=1.00:0.00 / mixed_ref=1 / me_range=16 / chroma_me=1 / trellis=1 / 8x8dct=1 / cqm=0 / deadzone=21,11 / fast_pskip=1 / chroma_qp_offset=-2 / threads=12 / lookahead_threads=2 / sliced_threads=0 / nr=0 / decimate=1 / interlaced=0 / bluray_compat=0 / constrained_intra=0 / bframes=3 / b_pyramid=2 / b_adapt=1 / b_bias=0 / direct=1 / weightb=1 / open_gop=0 / weightp=2 / keyint=240 / keyint_min=24 / scenecut=40 / intra_refresh=0 / rc_lookahead=40 / rc=2pass / mbtree=1 / bitrate=6586 / ratetol=1.0 / qcomp=0.60 / qpmin=0 / qpmax=69 / qpstep=4 / cplxblur=20.0 / qblur=0.5 / vbv_maxrate=62500 / vbv_bufsize=78125 / nal_hrd=none / filler=0 / ip_ratio=1.40 / aq=1:1.00
Default : Yes
Forced : No
Color range : Limited
Color primaries : BT.709
Transfer characteristics : BT.709
Matrix coefficients : BT.709

Audio
ID : 3
Format : DTS
Format/Info : Digital Theater Systems
Mode : 16
Format settings, Endianness : Big
Codec ID : A_DTS
Duration : 1 h 52 min
Bit rate mode : Constant
Bit rate : 1 509 kb/s
Channel(s) : 6 channels
Channel positions : Front: L C R, Side: L R, LFE
Sampling rate : 48.0 kHz
Frame rate : 93.750 FPS (512 SPF)
Bit depth : 24 bits
Compression mode : Lossy
Stream size : 1.19 GiB (19%)
Language : Hebrew
Default : Yes
Forced : No

Text
ID : 1
Format : UTF-8
Codec ID : S_TEXT/UTF8
Codec ID/Info : UTF-8 Plain Text
Default : No
Forced : No

Menu
00:00:00.000 : :00:00:00.000
00:12:50.500 : :00:12:50.500
00:25:26.125 : :00:25:26.042
00:36:49.125 : :00:36:49.125
00:48:55.375 : :00:48:55.292
01:01:05.292 : :01:01:05.292
01:13:49.000 : :01:13:49.000
01:24:12.125 : :01:24:12.125
01:44:27.542 : :01:44:27.542





Foxtrot (2017)


Foxtrot (2017)


Foxtrot (2017)


Foxtrot (2017)


Foxtrot (2017)