Tags
Language
Tags

BBC - Francesco's Mediterranean Voyage (2008)

Posted By: Tutorial
BBC - Francesco's Mediterranean Voyage (2008)

BBC - Francesco's Mediterranean Voyage (2008)
HDTV | 1920 x 1080 | .MKV/AVC @ 9000 Kbps | 12x~29mn | 22.4 GB
Audio: English AC-3 192 Kbps, 2 channels | Subs: English
Genre: Documentary, Arts, Travel

Francesco’s Mediterranean Voyage is a BBC Television documentary series first aired in 2008. It follows Venetian architect Francesco da Mosto as he follows the historical trading route from Venice through the Adriatic Sea, Corinth Canal, Aegean Sea and the Dardanelles to Istanbul. This route was taken by, among others, his ancestor Alvise da Mosto. Travelling as a member of the crew of the schooner Black Swan, along the way he stops off at the ports that were visited by the earlier traders and were in many cases part of the Venetian Empire. Along the way he takes in spectacular ruins, like the Acropolis in Athens and the Roman city of Ephesus in Turkey; sacred sites like the monasteries of Mount Athos and the Hagia Sophia in Istanbul; and beautiful Dubrovnik (destroyed and rebuilt in the last decade). Ancient history and bygone legends intertwine as Francesco visits these wonderful ancient sites.
Part 1: Arrivederci Venezia
New series. Architect and film-maker Francesco da Mosto sets off on a journey sailing from Venice in Italy to Istanbul in Turkey, retracing the trade routes his ancestors used in the 19th century. His first tasks are to research the voyage, learn vital new skills and gain the respect of his crew, with whom he will be spending the next few months at sea

Part 2: Istria and Split
The crew head down the Croatian coast, where Francesco da Mosto's first challenge is to scale the heights of the main mast to hang the Venetian flag aloft. They drop anchor in the beautiful city of Split where they visit Roman Emperor Diocletian's retirement villa - the oldest lived-in palace in the world

Part 3: Bosnia and Dubrovnik
Italian architect Francesco da Mosto visits the historic Mostar Bridge, now rebuilt after being destroyed in the Yugoslav war. After sailing between the Croatian islands of Hvar and Korcula, he arrives in the walled city of Dubrovnik and visits the Franciscan monastery at its heart

Part 4: Montenegro and Albania
Francesco da Mosto explores a shipwreck, meets Miss Montenegro and stops off in Tirana, the capital of Albania, where mayor Edi Rama has ordered the painting of many old buildings. He also visits the pirate fortress town of Ulcinj, and Duress - a poor area facing an uncertain future

Part 5: Corfu and Greece
The crew onboard the Black Swan make good headway as they enter Greek waters, but disaster strikes when the mainsail rips and they barely reach the next port - Corfu. Back on dry land, Francesco enjoys a game of cricket and meets David Bellamy, who points him in the direction of the island's animal life

Part 6: The Gulf of Corinth
Francesco da Mosto faces a difficult journey as he manoeuvres under the Rio Antirio bridge and navigates the narrow Corinth Canal. He stops off at Mount Parnassus to visit the mystical site of the Oracle at Delphi, before observing sacred temple the Parthenon on the Acropolis overlooking Athens and meeting singer Nana Mouskouri in the National Gardens of Greece

Part 7: The Pelopennese
Francesco travels by scooter to the ancient Greek theatre at Epidaurus, hearing for himself the extraordinary acoustics still celebrated today. Moving on to the Venetian fortress of Methoni, he learns how from the 13th century it became an important trading centre for people travelling to the Holy Land

Part 8: The Cyclades
Francesco da Mosto follows the modern-day Catholic pilgrimage route to the island of Tinos and its reputedly miraculous statue of the Virgin Mary as he sails through the Cyclades archipelago. On Delos, he investigates the temples of a more ancient religion, while Naxos is the site for an octopus fishing expedition

Part 9: Crete
Italian architect Francesco da Mosto learns about the island of Knossos, the legendary home of King Minos and the minotaur, a site of historic international importance. After attending a riotous traditional Greek wedding, he visits the former leper colony of Spinalonga, the setting for Victoria Hislop's novel The Island

Part 10: The Dodecanese
Francesco da Mosto's journey takes him to the islands of Leros, where Mussolini tried to create a fascist utopia during the 1940s, and Patmos, considered to be where the Book of Revelation was written almost 2,000 years ago. Upon reaching Turkey's Turquoise Coast, the architect spots loggerhead turtles

Part 11: The Dardanelles
Francesco da Mosto pays his respects to the soldiers commemorated at the war cemeteries of Gallipoli, monument to the Dardanelles campaign of World War One. In Edirne, he views Turkey's largest mosque and the second-oldest recognised sporting event after the Olympics, while Bursa reveals the origins of the doner kebab

Part 12: Istanbul
Francesco da Mosto reaches the former Turkish capital, Istanbul, a city founded as the centrepiece of the former Ottoman Empire, bestriding the Bosphorus Strait. After touring the Topkapi Palace and the mysterious underground city, he tries selling rugs at the bazaar before taking a relaxing Turkish bath and massage. Last in series

also You can look my other last: Travel-posts

General
Unique ID : 247576811188188311654487715747174382619 (0xBA418F362B9AE20F8147407FC7897C1B)
Complete name : BBC.Francescos.Mediterranean.Voyage.01of12.Arrivederci.Venezia.mkv
Format : Matroska
Format version : Version 2
File size : 1.87 GiB
Duration : 29mn 7s
Overall bit rate : 9 186 Kbps
Encoded date : UTC 2012-01-07 10:37:11
Writing application : mkvmerge v5.2.0 ('I can't explain') built on Dec 18 2011 18:12:03
Writing library : libebml v1.2.3 + libmatroska v1.3.0

Video
ID : 1
Format : AVC
Format/Info : Advanced Video Codec
Format profile : High@L4.1
Format settings, CABAC : Yes
Format settings, ReFrames : 4 frames
Codec ID : V_MPEG4/ISO/AVC
Duration : 29mn 7s
Bit rate : 9 000 Kbps
Width : 1 920 pixels
Height : 1 080 pixels
Display aspect ratio : 16:9
Frame rate : 25.000 fps
Color space : YUV
Chroma subsampling : 4:2:0
Bit depth : 8 bits
Scan type : Progressive
Bits/(Pixel*Frame) : 0.174
Stream size : 1.79 GiB (96%)
Writing library : x264 core 120 r2120 0c7dab9
Encoding settings : cabac=1 / ref=4 / deblock=1:0:0 / analyse=0x3:0x113 / me=umh / subme=9 / psy=1 / psy_rd=1.00:0.00 / mixed_ref=1 / me_range=24 / chroma_me=1 / trellis=1 / 8x8dct=1 / cqm=0 / deadzone=21,11 / fast_pskip=0 / chroma_qp_offset=-2 / threads=3 / sliced_threads=0 / nr=0 / decimate=1 / interlaced=0 / bluray_compat=0 / constrained_intra=0 / bframes=3 / b_pyramid=2 / b_adapt=1 / b_bias=0 / direct=1 / weightb=1 / open_gop=0 / weightp=2 / keyint=150 / keyint_min=15 / scenecut=40 / intra_refresh=0 / rc_lookahead=40 / rc=2pass / mbtree=1 / bitrate=9000 / ratetol=1.0 / qcomp=0.60 / qpmin=0 / qpmax=69 / qpstep=4 / cplxblur=20.0 / qblur=0.5 / ip_ratio=1.40 / aq=1:1.00
Language : English
Default : Yes
Forced : No

Audio
ID : 2
Format : AC-3
Format/Info : Audio Coding 3
Mode extension : CM (complete main)
Codec ID : A_AC3
Duration : 29mn 7s
Bit rate mode : Constant
Bit rate : 192 Kbps
Channel(s) : 2 channels
Channel positions : Front: L R
Sampling rate : 48.0 KHz
Bit depth : 16 bits
Compression mode : Lossy
Delay relative to video : 8ms
Stream size : 40.0 MiB (2%)
Language : English
Default : Yes
Forced : No

Text
ID : 3
Format : UTF-8
Codec ID : S_TEXT/UTF8
Codec ID/Info : UTF-8 Plain Text
Language : English
Default : No
Forced : No
Screenshots

BBC - Francesco's Mediterranean Voyage (2008)

BBC - Francesco's Mediterranean Voyage (2008)

BBC - Francesco's Mediterranean Voyage (2008)

BBC - Francesco's Mediterranean Voyage (2008)

BBC - Francesco's Mediterranean Voyage (2008)

BBC - Francesco's Mediterranean Voyage (2008)

Welcome to my blog - daily update!

BBC - Francesco's Mediterranean Voyage (2008)