Frankenstein (1931)

Posted By: NaVi7
Frankenstein (1931)

Frankenstein (1931)
BDRip 1080p | MKV / AVC, 9878 Kbps | 1456x1080 | 1h 10mn | 5.92 GB
English: DTS, 1510 Kbps (2 ch) | German: DTS, 448 Kbps (2 ch) | Subtitles: German
Genre: Horror | Sci-Fi

Henry Frankenstein is a doctor who is trying to discover a way to make the dead walk. He succeeds and creates a monster that has to deal with living again.

imdb

General
Unique ID : 185713611269954800242157818119330623142 (0x8BB723F7F8F4135492DB33F4C05A6EA6)
Complete name : d-frankenstein-1080p.mkv
Format : Matroska
Format version : Version 2
File size : 5.92 GiB
Duration : 1h 10mn
Overall bit rate : 12.1 Mbps
Movie name : Frankenstein (1931)
Encoded date : UTC 2012-10-10 19:49:35
Writing application : mkvmerge v5.8.0 ('No Sleep / Pillow') built on Sep 2 2012 15:37:04
Writing library : libebml v1.2.3 + libmatroska v1.3.0

Video
ID : 1
Format : AVC
Format/Info : Advanced Video Codec
Format profile : High@L4.1
Format settings, CABAC : Yes
Format settings, ReFrames : 4 frames
Codec ID : V_MPEG4/ISO/AVC
Bit rate : 9 878 Kbps
Width : 1 456 pixels
Height : 1 080 pixels
Display aspect ratio : 4:3
Frame rate mode : Variable
Original frame rate : 23.976 fps
Color space : YUV
Chroma subsampling : 4:2:0
Bit depth : 8 bits
Scan type : Progressive
Title : Frankenstein (1931)
Writing library : x264 core 128 r2216 198a7ea
Encoding settings : cabac=1 / ref=4 / deblock=1:-1:-1 / analyse=0x3:0x133 / me=umh / subme=7 / psy=1 / psy_rd=1.00:0.15 / mixed_ref=1 / me_range=16 / chroma_me=1 / trellis=1 / 8x8dct=1 / cqm=0 / deadzone=21,11 / fast_pskip=0 / chroma_qp_offset=-3 / threads=6 / lookahead_threads=1 / sliced_threads=0 / nr=0 / decimate=1 / interlaced=0 / bluray_compat=0 / constrained_intra=0 / bframes=3 / b_pyramid=2 / b_adapt=1 / b_bias=0 / direct=3 / weightb=1 / open_gop=0 / weightp=2 / keyint=240 / keyint_min=23 / scenecut=40 / intra_refresh=0 / rc_lookahead=40 / rc=crf / mbtree=1 / crf=20.0 / qcomp=0.60 / qpmin=0 / qpmax=69 / qpstep=4 / ip_ratio=1.40 / aq=1:1.00
Default : Yes
Forced : No

Audio #1
ID : 2
Format : DTS
Format/Info : Digital Theater Systems
Codec ID : A_DTS
Duration : 1h 10mn
Bit rate mode : Constant
Bit rate : 448 Kbps
Channel(s) : 2 channels
Channel positions : Front: L R
Sampling rate : 48.0 KHz
Bit depth : 24 bits
Compression mode : Lossy
Stream size : 225 MiB (4%)
Title : DTS
Language : German
Default : Yes
Forced : No

Audio #2
ID : 3
Format : DTS
Format/Info : Digital Theater Systems
Codec ID : A_DTS
Duration : 1h 10mn
Bit rate mode : Constant
Bit rate : 1 510 Kbps
Channel(s) : 2 channels
Channel positions : Front: L R
Sampling rate : 48.0 KHz
Bit depth : 24 bits
Compression mode : Lossy
Stream size : 758 MiB (13%)
Title : DTS
Language : English
Default : No
Forced : No

Text
ID : 4
Format : UTF-8
Codec ID : S_TEXT/UTF8
Codec ID/Info : UTF-8 Plain Text
Title : Forced Subs
Language : German
Default : Yes
Forced : No


screenshots:

Frankenstein (1931)

Frankenstein (1931)

Frankenstein (1931)


Welcome to My Blog!

No more mirrors!

LetitBit
http://letitbit.net/download/02026.079a5bdba59605132b1c57908232/d-frankenstein-1080p.mkv.html

RapidGator
http://rapidgator.net/file/50409958/d-frankenstein-1080p.part12.rar.html
http://rapidgator.net/file/50409965/d-frankenstein-1080p.part11.rar.html
http://rapidgator.net/file/50410001/d-frankenstein-1080p.part15.rar.html
http://rapidgator.net/file/50410080/d-frankenstein-1080p.part10.rar.html
http://rapidgator.net/file/50410118/d-frankenstein-1080p.part14.rar.html
http://rapidgator.net/file/50410237/d-frankenstein-1080p.part13.rar.html
http://rapidgator.net/file/50410468/d-frankenstein-1080p.part04.rar.html
http://rapidgator.net/file/50410471/d-frankenstein-1080p.part01.rar.html
http://rapidgator.net/file/50410503/d-frankenstein-1080p.part02.rar.html
http://rapidgator.net/file/50410607/d-frankenstein-1080p.part03.rar.html
http://rapidgator.net/file/50410763/d-frankenstein-1080p.part05.rar.html
http://rapidgator.net/file/50410952/d-frankenstein-1080p.part06.rar.html
http://rapidgator.net/file/50411069/d-frankenstein-1080p.part07.rar.html
http://rapidgator.net/file/50411081/d-frankenstein-1080p.part09.rar.html
http://rapidgator.net/file/50411149/d-frankenstein-1080p.part08.rar.html

Uploaded
http://uploaded.net/file/8q34p01y/d-frankenstein-1080p.part07.rar
http://uploaded.net/file/48e5pcr7/d-frankenstein-1080p.part08.rar
http://uploaded.net/file/mnmzy30m/d-frankenstein-1080p.part06.rar
http://uploaded.net/file/79ux3wou/d-frankenstein-1080p.part05.rar
http://uploaded.net/file/fls8im4t/d-frankenstein-1080p.part04.rar
http://uploaded.net/file/r6sypuaw/d-frankenstein-1080p.part03.rar
http://uploaded.net/file/8pyouzol/d-frankenstein-1080p.part01.rar
http://uploaded.net/file/5whj7tph/d-frankenstein-1080p.part02.rar
http://uploaded.net/file/bed8qzcv/d-frankenstein-1080p.part14.rar
http://uploaded.net/file/ma8k7qk0/d-frankenstein-1080p.part12.rar
http://uploaded.net/file/2rrqxhfv/d-frankenstein-1080p.part13.rar
http://uploaded.net/file/dl7g976r/d-frankenstein-1080p.part11.rar
http://uploaded.net/file/6rp5s123/d-frankenstein-1080p.part15.rar
http://uploaded.net/file/8hl7zbva/d-frankenstein-1080p.part10.rar
http://uploaded.net/file/j5chlj9x/d-frankenstein-1080p.part09.rar

RapidShare
https://www.rapidshare.com/files/3049224065/d-frankenstein-1080p.part01.rar
https://www.rapidshare.com/files/3244948440/d-frankenstein-1080p.part02.rar
https://www.rapidshare.com/files/3200121553/d-frankenstein-1080p.part03.rar
https://www.rapidshare.com/files/1201386459/d-frankenstein-1080p.part04.rar
https://www.rapidshare.com/files/510463992/d-frankenstein-1080p.part05.rar
https://www.rapidshare.com/files/1632248716/d-frankenstein-1080p.part06.rar
https://www.rapidshare.com/files/3631918945/d-frankenstein-1080p.part07.rar
https://www.rapidshare.com/files/4035118127/d-frankenstein-1080p.part08.rar
https://www.rapidshare.com/files/1006167663/d-frankenstein-1080p.part09.rar
https://www.rapidshare.com/files/2269291415/d-frankenstein-1080p.part10.rar
https://www.rapidshare.com/files/3623506972/d-frankenstein-1080p.part11.rar
https://www.rapidshare.com/files/599683475/d-frankenstein-1080p.part12.rar
https://www.rapidshare.com/files/1402401343/d-frankenstein-1080p.part13.rar
https://www.rapidshare.com/files/3632833338/d-frankenstein-1080p.part14.rar
https://www.rapidshare.com/files/4152226798/d-frankenstein-1080p.part15.rar