Tags
Language
Tags

PBS - FRONTLINE: Shots Fired (2021)

Posted By: notbanned
1080p (FullHD) / WEBRip
PBS - FRONTLINE: Shots Fired (2021)

PBS - FRONTLINE: Shots Fired (2021)
WEBRip | 1920x1080 | .MKV/AVC @ 6500 Kbps | 54 min 23 s | 2.54 GiB
Audio: English AAC 157 kbps, 2 channels | Subs: English
Genre: Documentary

Amid record police shootings in Utah, an investigation into the use of deadly force in the state. With local journalism partner The Salt Lake Tribune, FRONTLINE examines police training, tactics and accountability, as well as racial disparities in the way force is used.

General
Unique ID : 146647388963783379501508146356902196752 (0x6E53428019AC723C8744B24DADA47610)
Complete name : Frontline.Shots.Fired.1080p.mkv
Format : Matroska
Format version : Version 4 / Version 2
File size : 2.54 GiB
Duration : 54 min 23 s
Overall bit rate : 6 692 kb/s

Video
ID : 1
Format : AVC
Format/Info : Advanced Video Codec
Format profile : High@L4
Format settings, CABAC : Yes
Format settings, ReFrames : 4 frames
Codec ID : V_MPEG4/ISO/AVC
Duration : 54 min 23 s
Bit rate mode : Constant
Bit rate : 6 500 kb/s
Width : 1 920 pixels
Height : 1 080 pixels
Display aspect ratio : 16:9
Frame rate mode : Constant
Frame rate : 29.970 (30000/1001) FPS
Standard : NTSC
Color space : YUV
Chroma subsampling : 4:2:0
Bit depth : 8 bits
Scan type : Progressive
Bits/(Pixel*Frame) : 0.105
Stream size : 2.48 GiB (98%)
Language : English
Default : Yes
Forced : No
Color range : Limited
Color primaries : BT.709
Transfer characteristics : BT.709
Matrix coefficients : BT.709

Audio
ID : 2
Format : AAC
Format/Info : Advanced Audio Codec
Format profile : LC
Codec ID : A_AAC
Duration : 54 min 23 s
Bit rate : 157 kb/s
Channel(s) : 2 channels
Channel positions : Front: L R
Sampling rate : 48.0 kHz
Frame rate : 46.875 FPS (1024 spf)
Compression mode : Lossy
Delay relative to video : -33 ms
Stream size : 61.2 MiB (2%)
Language : English
Default : Yes
Forced : No

Text
ID : 3
Format : UTF-8
Codec ID : S_TEXT/UTF8
Codec ID/Info : UTF-8 Plain Text
Duration : 53 min 54 s
Bit rate : 95 b/s
Count of elements : 1018
Stream size : 37.8 KiB (0%)
Language : English
Default : No
Forced : No


Screenshots:

PBS - FRONTLINE: Shots Fired (2021)

PBS - FRONTLINE: Shots Fired (2021)

PBS - FRONTLINE: Shots Fired (2021)

PBS - FRONTLINE: Shots Fired (2021)