Tags
Language
Tags

PBS - FRONTLINE: The Persuaders (2004)

Posted By: notbanned
SD / WEB-DL
PBS - FRONTLINE: The Persuaders (2004)

PBS - FRONTLINE: The Persuaders (2004)
WEB-DL | 720x480 | .MP4/AVC @ 2400 Kbps | 55 min 16 s | 1001 MiB
Audio: English AAC 128 kbps, 2 channels | Subs: None
Genre: Documentary

Frontline presents an in-depth look at the world of advertising and public relations, revealing how the industry's marketing practices have come to influence everything from culture to politics. Using interviews with experts and observers of the advertising/marketing world, the program explores the industry's sophisticated market research techniques to show how marketers have developed new ways of breaking through consumers' growing resistance to marketing messages.

General
Complete name : Frontline.S2004E15.The.Persuaders.mp4
Format : MPEG-4
Format profile : Base Media
Codec ID : isom (isom/avc1/mp42)
File size : 1 001 MiB
Duration : 55 min 16 s
Overall bit rate mode : Variable
Overall bit rate : 2 532 kb/s

Video
ID : 1
Format : AVC
Format/Info : Advanced Video Codec
Format profile : High@L3
Format settings, CABAC : Yes
Format settings, ReFrames : 5 frames
Codec ID : avc1
Codec ID/Info : Advanced Video Coding
Duration : 55 min 16 s
Bit rate : 2 400 kb/s
Maximum bit rate : 7 976 kb/s
Width : 720 pixels
Height : 480 pixels
Display aspect ratio : 3:2
Frame rate mode : Constant
Frame rate : 29.970 (30000/1001) FPS
Standard : NTSC
Color space : YUV
Chroma subsampling : 4:2:0
Bit depth : 8 bits
Scan type : Progressive
Bits/(Pixel*Frame) : 0.232
Stream size : 949 MiB (95%)
Writing library : Zencoder Video Encoding System
Encoded date : UTC 2015-11-17 14:06:05
Tagged date : UTC 2015-11-17 14:11:08
Color range : Limited
Color primaries : BT.601 NTSC
Transfer characteristics : BT.709
Matrix coefficients : BT.601

Audio
ID : 2
Format : AAC
Format/Info : Advanced Audio Codec
Format profile : LC
Codec ID : 40
Duration : 55 min 16 s
Bit rate mode : Variable
Bit rate : 128 kb/s
Maximum bit rate : 178 kb/s
Channel(s) : 2 channels
Channel positions : Front: L R
Sampling rate : 48.0 kHz
Frame rate : 46.875 FPS (1024 spf)
Compression mode : Lossy
Stream size : 50.5 MiB (5%)
Language : English
Encoded date : UTC 2015-11-17 14:02:14
Tagged date : UTC 2015-11-17 14:11:08


Screenshots:

PBS - FRONTLINE: The Persuaders (2004)

PBS - FRONTLINE: The Persuaders (2004)

PBS - FRONTLINE: The Persuaders (2004)

PBS - FRONTLINE: The Persuaders (2004)