PBS - Frontline: Rape on the Night Shift (2015)

Posted By: notbanned
1080p (FullHD) / WEB-DL IMDb
PBS - Frontline: Rape on the Night Shift (2015)

PBS - Frontline: Rape on the Night Shift (2015)
WEB-DL | 1920x1080 | .MP4/AVC @ 6392 Kbps | 53 min 41 s | 2.46 GiB
Audio: English AAC 160 kbps, 2 channels | Subs: English
Genre: Documentary

FRONTLINE uncovers the sexual abuse of immigrant women who work the night shift in the janitorial industry. Drawing on interviews with the women themselves, an attorney for the federal agency that enforces sexual harassment laws in the workplace, and a watchdog group that monitors workplace conditions for janitors, the investigation sheds new light on this underreported problem.

General
Complete name : Frontline.S2015E10.rp.on.the.Night.Shift.1080p.mp4
Format : MPEG-4
Format profile : Base Media
Codec ID : isom (isom/avc1/mp42)
File size : 2.46 GiB
Duration : 53 min 41 s
Overall bit rate mode : Variable
Overall bit rate : 6 556 kb/s

Video
ID : 1
Format : AVC
Format/Info : Advanced Video Codec
Format profile : High@L5
Format settings, CABAC : Yes
Format settings, ReFrames : 5 frames
Codec ID : avc1
Codec ID/Info : Advanced Video Coding
Duration : 53 min 41 s
Bit rate : 6 392 kb/s
Maximum bit rate : 22.2 Mb/s
Width : 1 920 pixels
Height : 1 080 pixels
Display aspect ratio : 16:9
Frame rate mode : Constant
Frame rate : 29.970 (30000/1001) FPS
Color space : YUV
Chroma subsampling : 4:2:0
Bit depth : 8 bits
Scan type : Progressive
Bits/(Pixel*Frame) : 0.103
Stream size : 2.40 GiB (97%)
Writing library : Zencoder Video Encoding System
Encoded date : UTC 2016-05-05 22:17:36
Tagged date : UTC 2016-05-05 22:34:50
Color range : Limited
Color primaries : BT.709
Transfer characteristics : BT.709
Matrix coefficients : BT.709

Audio
ID : 2
Format : AAC
Format/Info : Advanced Audio Codec
Format profile : LC
Codec ID : 40
Duration : 53 min 41 s
Bit rate mode : Variable
Bit rate : 160 kb/s
Maximum bit rate : 198 kb/s
Channel(s) : 2 channels
Channel positions : Front: L R
Sampling rate : 48.0 kHz
Frame rate : 46.875 FPS (1024 spf)
Compression mode : Lossy
Stream size : 61.4 MiB (2%)
Language : English
Encoded date : UTC 2016-05-05 22:01:17
Tagged date : UTC 2016-05-05 22:34:50


Screenshots:

PBS - Frontline: Rape on the Night Shift (2015)

PBS - Frontline: Rape on the Night Shift (2015)

PBS - Frontline: Rape on the Night Shift (2015)

PBS - Frontline: Rape on the Night Shift (2015)