Tags
Language
Tags
November 2022
Su Mo Tu We Th Fr Sa
30 31 1 2 3 4 5
6 7 8 9 10 11 12
13 14 15 16 17 18 19
20 21 22 23 24 25 26
27 28 29 30 1 2 3

Frozen (2013)

Posted By: Tavaz
1080p (FullHD) / BDRip IMDb
Frozen (2013)

Frozen (2013)
BDRip | MKV | 1920x856 | English | H265 @ 1979 kbps | AAC @ 303 kbps | 1 h 42 min | 1.63 GiB
Subtitles: English
Genre: Adventure, Animation, Family

Young princess Anna of Arendelle dreams about finding true love at her sister Elsa’s coronation. Fate takes her on a dangerous journey in an attempt to end the eternal winter that has fallen over the kingdom. She's accompanied by ice delivery man Kristoff, his reindeer Sven, and snowman Olaf. On an adventure where she will find out what friendship, courage, family, and true love really means.

cce56a861db3ba708a6b1f261a7c0753.mkv (1.6 GB)



General
Complete name : ./cce56a861db3ba708a6b1f261a7c0753.mkv
Format : Matroska
Format version : Version 4 / Version 2
File size : 1.63 GiB
Duration : 1 h 42 min
Overall bit rate : 2 285 kb/s
Encoded date : UTC 2019-12-28 20:07:27
Writing application : mkvmerge v41.0.0 ('Smarra') 64-bit
Writing library : libebml v1.3.9 + libmatroska v1.5.2

Video
ID : 1
Format : HEVC
Format/Info : High Efficiency Video Coding
Format profile : Main 10@L4@Main
Codec ID : V_MPEGH/ISO/HEVC
Duration : 1 h 42 min
Bit rate : 1 979 kb/s
Width : 1 920 pixels
Height : 856 pixels
Display aspect ratio : 2.25:1
Frame rate mode : Constant
Frame rate : 23.976 (24000/1001) FPS
Color space : YUV
Chroma subsampling : 4:2:0
Bit depth : 10 bits
Bits/(Pixel*Frame) : 0.050
Stream size : 1.41 GiB (87%)
Default : Yes
Forced : No

Audio
ID : 2
Format : AAC
Format/Info : Advanced Audio Codec
Format profile : HE-AAC / LC
Format settings : Explicit
Codec ID : A_AAC-2
Duration : 1 h 42 min
Bit rate : 303 kb/s
Channel(s) : 8 channels
Channel positions : Front: L C R, Side: L R, Back: L R, LFE
Sampling rate : 48.0 kHz / 24.0 kHz
Frame rate : 23.438 FPS (1024 SPF)
Compression mode : Lossy
Delay relative to video : 31 ms
Stream size : 222 MiB (13%)
Language : English
Default : Yes
Forced : No

Text #1
ID : 3
Format : UTF-8
Codec ID : S_TEXT/UTF8
Codec ID/Info : UTF-8 Plain Text
Duration : 1 h 40 min
Bit rate : 57 b/s
Count of elements : 1641
Stream size : 42.3 KiB (0%)
Language : English
Default : Yes
Forced : No

Text #2
ID : 4
Format : UTF-8
Codec ID : S_TEXT/UTF8
Codec ID/Info : UTF-8 Plain Text
Duration : 1 h 41 min
Bit rate : 67 b/s
Count of elements : 1982
Stream size : 50.4 KiB (0%)
Language : English
Default : No
Forced : No

Menu
00:00:00.000 : en:00:00:00.000
00:05:59.818 : en:00:05:59.818
00:11:37.947 : en:00:11:37.947
00:19:53.734 : en:00:19:53.734
00:31:03.195 : en:00:31:03.195
00:38:39.484 : en:00:38:39.484
00:44:21.284 : en:00:44:21.284
00:50:51.507 : en:00:50:51.507
00:57:48.381 : en:00:57:48.381
01:02:57.399 : en:01:02:57.399
01:09:36.047 : en:01:09:36.047
01:13:34.869 : en:01:13:34.869
01:18:07.599 : en:01:18:07.599
01:22:33.740 : en:01:22:33.740
01:27:10.809 : en:01:27:10.809
01:32:33.506 : en:01:32:33.506





Frozen (2013)


Frozen (2013)


Frozen (2013)


Frozen (2013)


Frozen (2013)