Tags
Language
Tags

Game of Thrones S07E01 (2017)

Posted By: JohnSmith
Game of Thrones S07E01 (2017)

Game of Thrones S07E01 (2017)
WEBRip | MKV / AVC@710 kb/s | 720x400 | 1h 0 min | 393 MB | English: AAC, 192 kb/s (2 ch)
WEBRip | MKV / AVC@1500 kb/s | 720x400 | 1h 1mn | 828 MB | English: AC3, 384 kb/s (6 ch)
WEBRip 720p | MKV / AVC@2250 kb/s | 1280x720 | 1h 1mn | 1.24 GB
English: AC3, 640 kb/s (6 ch) | Subtitles: English
WEBRip 1080p | MKV / AVC@7524 kb/s | 1920x1080 | 1h 1mn | 3.51 GB
English: AC3, 640 kb/s (6 ch) | Subtitles: English
Genre: Adventure | Drama | Fantasy

In the mythical continent of Westeros, several powerful families fight for control of the Seven Kingdoms. As conflict erupts in the kingdoms of men, an ancient enemy rises once again to threaten them all. Meanwhile, the last heirs of a recently usurped dynasty plot to take back their homeland from across the Narrow Sea.

IMDB - Top Rated TV #4 | Won 1 Golden Globe. Another 244 wins & 414 nominations.



General
Unique ID : 185184867423630847023246048323898913490 (0x8B514EE262762F17B3F1D6F98AEF32D2)
Complete name : A:\game.of.thrones.s07e01.WEBRip.mkv
Format : Matroska
Format version : Version 4 / Version 2
File size : 393 MiB
Duration : 1 h 0 min
Overall bit rate : 901 kb/s
Encoded date : UTC 2017-07-17 01:39:52
Writing application : mkvmerge v8.3.0 ('Over the Horizon') 64bit
Writing library : libebml v1.3.1 + libmatroska v1.4.2

Video
ID : 1
Format : AVC
Format/Info : Advanced Video Codec
Format profile : Baseline@L3.1
Format settings, CABAC : No
Format settings, ReFrames : 3 frames
Codec ID : V_MPEG4/ISO/AVC
Duration : 1 h 0 min
Bit rate : 709 kb/s
Width : 720 pixels
Height : 400 pixels
Display aspect ratio : 16:9
Frame rate mode : Constant
Frame rate : 23.976 (24000/1001) FPS
Color space : YUV
Chroma subsampling : 4:2:0
Bit depth : 8 bits
Scan type : Progressive
Bits/(Pixel*Frame) : 0.103
Stream size : 309 MiB (79%)
Writing library : x264 core 148 r2708 86b7198
Encoding settings : cabac=0 / ref=3 / deblock=1:0:0 / analyse=0x1:0x111 / me=hex / subme=7 / psy=1 / psy_rd=1.00:0.00 / mixed_ref=1 / me_range=16 / chroma_me=1 / trellis=1 / 8x8dct=0 / cqm=0 / deadzone=21,11 / fast_pskip=1 / chroma_qp_offset=-2 / threads=12 / lookahead_threads=2 / sliced_threads=0 / nr=0 / decimate=1 / interlaced=0 / bluray_compat=0 / constrained_intra=0 / bframes=0 / weightp=0 / keyint=240 / keyint_min=24 / scenecut=40 / intra_refresh=0 / rc_lookahead=40 / rc=crf / mbtree=1 / crf=20.0 / qcomp=0.60 / qpmin=0 / qpmax=69 / qpstep=4 / vbv_maxrate=14000 / vbv_bufsize=14000 / crf_max=0.0 / nal_hrd=none / filler=0 / ip_ratio=1.40 / aq=1:1.00
Default : Yes
Forced : No
Color range : Limited
Color primaries : BT.709
Transfer characteristics : BT.709
Matrix coefficients : BT.709

Audio
ID : 2
Format : AAC
Format/Info : Advanced Audio Codec
Format profile : LC
Codec ID : A_AAC
Duration : 1 h 0 min
Bit rate : 192 kb/s
Channel(s) : 2 channels
Channel positions : Front: L R
Sampling rate : 48.0 kHz
Frame rate : 46.875 FPS (1024 spf)
Compression mode : Lossy
Stream size : 82.6 MiB (21%)
Title : Stereo
Default : Yes
Forced : No





General
Unique ID : 199282887238308703366776322752613206673 (0x95EC7CED26602286A3708042FAE84A91)
Complete name : A:\Game.of.Thrones.S07E01.Dragonstone.AMZN.WEBRip.mkv
Format : Matroska
Format version : Version 4 / Version 2
File size : 828 MiB
Duration : 1 h 1 min
Overall bit rate : 1 884 kb/s
Encoded date : UTC 2017-07-17 01:53:27
Writing application : mkvmerge v8.3.0 ('Over the Horizon') 64bit
Writing library : libebml v1.3.1 + libmatroska v1.4.2

Video
ID : 1
Format : AVC
Format/Info : Advanced Video Codec
Format profile : Baseline@L3.1
Format settings, CABAC : No
Format settings, ReFrames : 1 frame
Codec ID : V_MPEG4/ISO/AVC
Duration : 1 h 1 min
Bit rate : 1 500 kb/s
Width : 720 pixels
Height : 400 pixels
Display aspect ratio : 16:9
Frame rate mode : Constant
Frame rate : 23.976 (24000/1001) FPS
Color space : YUV
Chroma subsampling : 4:2:0
Bit depth : 8 bits
Scan type : Progressive
Bits/(Pixel*Frame) : 0.217
Stream size : 659 MiB (80%)
Writing library : x264 core 148 r2708 86b7198
Encoding settings : cabac=0 / ref=1 / deblock=1:0:0 / analyse=0x1:0x111 / me=hex / subme=2 / psy=1 / psy_rd=1.00:0.00 / mixed_ref=0 / me_range=16 / chroma_me=1 / trellis=0 / 8x8dct=0 / cqm=0 / deadzone=21,11 / fast_pskip=1 / chroma_qp_offset=0 / threads=12 / lookahead_threads=3 / sliced_threads=0 / nr=0 / decimate=1 / interlaced=0 / bluray_compat=0 / constrained_intra=0 / bframes=0 / weightp=0 / keyint=240 / keyint_min=24 / scenecut=40 / intra_refresh=0 / rc_lookahead=10 / rc=2pass / mbtree=1 / bitrate=1500 / ratetol=1.0 / qcomp=0.60 / qpmin=0 / qpmax=69 / qpstep=4 / cplxblur=20.0 / qblur=0.5 / vbv_maxrate=14000 / vbv_bufsize=14000 / nal_hrd=none / filler=0 / ip_ratio=1.40 / aq=1:1.00
Default : Yes
Forced : No
Color range : Limited
Color primaries : BT.709
Transfer characteristics : BT.709
Matrix coefficients : BT.709

Audio
ID : 2
Format : AC-3
Format/Info : Audio Coding 3
Format settings, Endianness : Big
Codec ID : A_AC3
Duration : 1 h 1 min
Bit rate mode : Constant
Bit rate : 384 kb/s
Channel(s) : 6 channels
Channel positions : Front: L C R, Side: L R, LFE
Sampling rate : 48.0 kHz
Frame rate : 31.250 FPS (1536 spf)
Bit depth : 16 bits
Compression mode : Lossy
Delay relative to video : 18 ms
Stream size : 169 MiB (20%)
Title : Surround
Language : English
Service kind : Complete Main
Default : Yes
Forced : No





General
Unique ID : 225947890082606688695192666090419484878 (0xA9FBFB11A74AC481BD4F63C1843378CE)
Complete name : D:\Downloads\Game.of.Thrones.S07E01.Dragonstone.720p.AMZN.WEB-DL.DDP5.1.H.264-GoT.mkv
Format : Matroska
Format version : Version 4 / Version 2
File size : 1.24 GiB
Duration : 1 h 1 min
Overall bit rate mode : Variable
Overall bit rate : 2 891 kb/s
Encoded date : UTC 2017-07-17 01:18:41
Writing application : mkvmerge v7.6.0 ('Garden of Dreams') 64bit built on Feb 8 2015 13:04:34
Writing library : libebml v1.3.1 + libmatroska v1.4.2

Video
ID : 1
Format : AVC
Format/Info : Advanced Video Codec
Format profile : High@L3.1
Format settings, CABAC : Yes
Format settings, ReFrames : 5 frames
Codec ID : V_MPEG4/ISO/AVC
Duration : 1 h 1 min
Bit rate mode : Variable
Bit rate : 2 249 kb/s
Maximum bit rate : 4 500 kb/s
Width : 1 280 pixels
Height : 720 pixels
Display aspect ratio : 16:9
Frame rate mode : Constant
Frame rate : 23.976 (24000/1001) FPS
Color space : YUV
Chroma subsampling : 4:2:0
Bit depth : 8 bits
Scan type : Progressive
Bits/(Pixel*Frame) : 0.102
Stream size : 989 MiB (78%)
Default : Yes
Forced : No
Color range : Limited
Color primaries : BT.709
Transfer characteristics : BT.709
Matrix coefficients : BT.709

Audio
ID : 2
Format : E-AC-3
Format/Info : Enhanced Audio Coding 3
Format settings, Endianness : Big
Codec ID : A_EAC3
Duration : 1 h 1 min
Bit rate mode : Constant
Bit rate : 640 kb/s
Channel(s) : 6 channels
Channel positions : Front: L C R, Side: L R, LFE
Sampling rate : 48.0 kHz
Frame rate : 187.500 FPS (256 spf)
Compression mode : Lossy
Delay relative to video : 23 ms
Stream size : 281 MiB (22%)
Language : English
Service kind : Complete Main
Default : Yes
Forced : No

Text
ID : 3
Format : UTF-8
Codec ID : S_TEXT/UTF8
Codec ID/Info : UTF-8 Plain Text
Duration : 1 h 1 min
Bit rate : 55 b/s
Count of elements : 758
Stream size : 24.9 KiB (0%)
Language : English
Default : No
Forced : No

Menu
00:00:00.000 : en:TV Rating
00:00:02.327 : en:Previously On
00:02:28.327 : en:Studio Logo
00:02:33.327 : en:Walder Frey holds a feast for his family; The Twins
00:06:26.327 : en:Opening Credits
00:08:13.327 : en:Bran and Meera arrive at the Wall; The Wall
00:11:40.327 : en:Jon prepares his men for the coming Winter; Winterfell
00:16:40.327 : en:Jon receives a message from King's Landing; Winterfell
00:19:30.327 : en:Jaime tells Cersei they need allies; King's Landing
00:25:08.327 : en:Euron makes Cersei an offer; King's Landing
00:29:06.327 : en:Sam talks with Archmaester Marwyn about the White Walkers; Oldtown
00:35:59.327 : en:Littlefinger asks Sansa if she is happy; Winterfell
00:38:07.327 : en:Arya runs into a group of soldiers; The Riverlands
00:42:16.327 : en:The Brotherhood Without Banners travel north; The North
00:51:31.327 : en:Sam discovers something in a book; Oldtown
00:54:10.327 : en:Daenerys comes home; Dragonstone
00:59:46.327 : en:End Credits
01:01:04.327 : en:Next On
01:01:24.327 : en:Online Extra





General
Unique ID : 189339335212895112438117351753810262239 (0x8E716DF5EB799F2892E1808BE9B938DF)
Complete name : D:\Downloads\Game.of.Thrones.S07E01.Dragonstone.REPACK.1080p.AMZN.WEB-DL.DD+5.1.H.264-GoT.mkv
Format : Matroska
Format version : Version 4 / Version 2
File size : 3.51 GiB
Duration : 1 h 1 min
Overall bit rate mode : Variable
Overall bit rate : 8 166 kb/s
Encoded date : UTC 2017-07-17 02:38:44
Writing application : mkvmerge v9.3.1 ('Mask Machine') 64bit
Writing library : libebml v1.3.4 + libmatroska v1.4.5

Video
ID : 1
Format : AVC
Format/Info : Advanced Video Codec
Format profile : High@L4
Format settings, CABAC : Yes
Format settings, ReFrames : 4 frames
Codec ID : V_MPEG4/ISO/AVC
Duration : 1 h 1 min
Bit rate mode : Variable
Bit rate : 7 524 kb/s
Maximum bit rate : 15.0 Mb/s
Width : 1 920 pixels
Height : 1 080 pixels
Display aspect ratio : 16:9
Frame rate mode : Constant
Frame rate : 23.976 (24000/1001) FPS
Color space : YUV
Chroma subsampling : 4:2:0
Bit depth : 8 bits
Scan type : Progressive
Bits/(Pixel*Frame) : 0.151
Stream size : 3.23 GiB (92%)
Default : Yes
Forced : No
Color range : Limited
Color primaries : BT.709
Transfer characteristics : BT.709
Matrix coefficients : BT.709

Audio
ID : 2
Format : E-AC-3
Format/Info : Enhanced Audio Coding 3
Format settings, Endianness : Big
Codec ID : A_EAC3
Duration : 1 h 1 min
Bit rate mode : Constant
Bit rate : 640 kb/s
Channel(s) : 6 channels
Channel positions : Front: L C R, Side: L R, LFE
Sampling rate : 48.0 kHz
Frame rate : 187.500 FPS (256 spf)
Compression mode : Lossy
Delay relative to video : 23 ms
Stream size : 281 MiB (8%)
Language : English
Service kind : Complete Main
Default : Yes
Forced : No

Text
ID : 3
Format : UTF-8
Codec ID : S_TEXT/UTF8
Codec ID/Info : UTF-8 Plain Text
Duration : 1 h 1 min
Bit rate : 55 b/s
Count of elements : 758
Stream size : 24.9 KiB (0%)
Language : English
Default : No
Forced : No

Menu
00:00:00.000 : en:TV Rating
00:00:02.327 : en:Previously On
00:02:28.327 : en:Studio Logo
00:02:33.327 : en:Walder Frey holds a feast for his family; The Twins
00:06:26.327 : en:Opening Credits
00:08:13.327 : en:Bran and Meera arrive at the Wall; The Wall
00:11:40.327 : en:Jon prepares his men for the coming Winter; Winterfell
00:16:40.327 : en:Jon receives a message from King's Landing; Winterfell
00:19:30.327 : en:Jaime tells Cersei they need allies; King's Landing
00:25:08.327 : en:Euron makes Cersei an offer; King's Landing
00:29:06.327 : en:Sam talks with Archmaester Marwyn about the White Walkers; Oldtown
00:35:59.327 : en:Littlefinger asks Sansa if she is happy; Winterfell
00:38:07.327 : en:Arya runs into a group of soldiers; The Riverlands
00:42:16.327 : en:The Brotherhood Without Banners travel north; The North
00:51:31.327 : en:Sam discovers something in a book; Oldtown
00:54:10.327 : en:Daenerys comes home; Dragonstone
00:59:46.327 : en:End Credits
01:01:04.327 : en:Next On
01:01:24.327 : en:Online Extra




Screenshots WEBRip

Game of Thrones S07E01 (2017)

Game of Thrones S07E01 (2017)

Game of Thrones S07E01 (2017)


Screenshots WEBRip 6ch

Game of Thrones S07E01 (2017)

Game of Thrones S07E01 (2017)

Game of Thrones S07E01 (2017)


Screenshots WEBRip 720p

Game of Thrones S07E01 (2017)

Game of Thrones S07E01 (2017)

Game of Thrones S07E01 (2017)


Screenshots WEBRip 1080p

Game of Thrones S07E01 (2017)

Game of Thrones S07E01 (2017)

Game of Thrones S07E01 (2017)