Tags
Language
Tags

Game of Thrones S07E03 (2017)

Posted By: JohnSmith
Game of Thrones S07E03 (2017)

Game of Thrones S07E03 (2017)
WEBRip | MKV / AVC@1100 kb/s | 960x540 | 1h 4mn | 611 MB
English: AC3, 224 kb/s (2 ch) | Subtitles: English
WEBRip | MKV / AVC@1500 kb/s | 720x400 | 1h 4mn | 898 MB | English: AC3, 448 kb/s (6 ch)
WEBRip 720p | MKV / AVC@2414 kb/s | 1280x720 | 1h 4mn | 1.38 GB
English: AC3, 640 kb/s (6 ch) | Subtitles: English
WEBRip 1080p | MKV / AVC@8778 kb/s | 1920x1080 | 1h 4mn | 4.24 GB
English: AC3, 640 kb/s (6 ch) | Subtitles: English
WEBRip 720p | MKV / HEVC@1476 kb/s | 1280x720 | 1h 4mn | 976 MB | English: AC3, 640 kb/s (6 ch)
WEBRip 1080p | MKV / HEVC@2464 kb/s | 1920x1080 | 1h 4mn | 1.40 GB | English: AC3, 640 kb/s (6 ch)
Genre: Adventure | Drama | Fantasy

In the mythical continent of Westeros, several powerful families fight for control of the Seven Kingdoms. As conflict erupts in the kingdoms of men, an ancient enemy rises once again to threaten them all. Meanwhile, the last heirs of a recently usurped dynasty plot to take back their homeland from across the Narrow Sea.

IMDB - Top Rated TV #4 | Won 1 Golden Globe. Another 244 wins & 414 nominations.



General
Unique ID : 230076975264603486735867243983388815465 (0xAD1736AFA4DA823E96E4864C52583069)
Complete name : D:\Downloads\Game.of.Thrones.S07E03.The.Queens.Justice.AMZN.WEBRip.DDP2.0.x264-GoT[rarbg]\Game.of.Thrones.S07E03.The.Queens.Justice.AMZN.WEB-DL.DD+2.0.H.264-GoT.mkv
Format : Matroska
Format version : Version 4 / Version 2
File size : 611 MiB
Duration : 1 h 4 min
Overall bit rate mode : Variable
Overall bit rate : 1 325 kb/s
Encoded date : UTC 2017-07-31 01:03:38
Writing application : mkvmerge v7.6.0 ('Garden of Dreams') 64bit built on Feb 8 2015 13:04:34
Writing library : libebml v1.3.1 + libmatroska v1.4.2

Video
ID : 1
Format : AVC
Format/Info : Advanced Video Codec
Format profile : High@L3.1
Format settings, CABAC : Yes
Format settings, ReFrames : 5 frames
Codec ID : V_MPEG4/ISO/AVC
Duration : 1 h 4 min
Bit rate mode : Variable
Bit rate : 1 099 kb/s
Maximum bit rate : 2 995 kb/s
Width : 960 pixels
Height : 540 pixels
Display aspect ratio : 16:9
Frame rate mode : Constant
Frame rate : 23.976 (24000/1001) FPS
Color space : YUV
Chroma subsampling : 4:2:0
Bit depth : 8 bits
Scan type : Progressive
Bits/(Pixel*Frame) : 0.088
Stream size : 506 MiB (83%)
Default : Yes
Forced : No
Color range : Limited
Color primaries : BT.709
Transfer characteristics : BT.709
Matrix coefficients : BT.709

Audio
ID : 2
Format : E-AC-3
Format/Info : Enhanced Audio Coding 3
Format settings, Endianness : Big
Codec ID : A_EAC3
Duration : 1 h 4 min
Bit rate mode : Constant
Bit rate : 224 kb/s
Channel(s) : 2 channels
Channel positions : Front: L R
Sampling rate : 48.0 kHz
Frame rate : 187.500 FPS (256 spf)
Compression mode : Lossy
Delay relative to video : 25 ms
Stream size : 103 MiB (17%)
Language : English
Service kind : Complete Main
Default : Yes
Forced : No

Text
ID : 3
Format : UTF-8
Codec ID : S_TEXT/UTF8
Codec ID/Info : UTF-8 Plain Text
Duration : 1 h 4 min
Bit rate : 69 b/s
Count of elements : 990
Stream size : 32.8 KiB (0%)
Language : English
Default : No
Forced : No

Menu
00:00:00.000 : en:Stay Tuned
00:00:00.041 : en:TV Rating
00:00:05.041 : en:Previously On
00:01:32.041 : en:Studio Logo
00:01:38.041 : en:Opening Credits
00:03:25.041 : en:Jon Snow arrives at Dragonstone; Dragonstone
00:09:22.041 : en:The King meets the Queen; Dragonstone
00:19:53.041 : en:Euron returns with his captives; King's Landing
00:24:45.041 : en:The Queen's justice; King's Landing
00:29:31.041 : en:The Iron Bank wants its gold back; King's Landing
00:33:52.041 : en:Tyrion tries to help Jon; Dragonstone
00:39:37.041 : en:Daenerys and Jon negotiate; Dragonstone
00:41:32.041 : en:Sansa receives an unexpected visitor; Winterfell
00:47:00.041 : en:Archmaester Ebrose examines Jorah; Oldtown
00:51:15.041 : en:Daenerys and her advisers discuss strategy; Dragonstone
00:54:53.041 : en:The Lannisters arrive; Highgarden
01:02:34.041 : en:End Credits
01:03:53.041 : en:Next On
01:04:23.041 : en:Online Extra





General
Unique ID : 214103561254848545689044097265972192050 (0xA112D89247DA4D7AA7E95C4F089AA332)
Complete name : A:\Game.of.Thrones.S07E03.The.Queens.Justice.AMZN.WEBRip.6ch.mkv
Format : Matroska
Format version : Version 4 / Version 2
File size : 898 MiB
Duration : 1 h 4 min
Overall bit rate : 1 949 kb/s
Encoded date : UTC 2017-07-31 01:36:43
Writing application : mkvmerge v8.3.0 ('Over the Horizon') 64bit
Writing library : libebml v1.3.1 + libmatroska v1.4.2

Video
ID : 1
Format : AVC
Format/Info : Advanced Video Codec
Format profile : Baseline@L3.1
Format settings, CABAC : No
Format settings, ReFrames : 1 frame
Codec ID : V_MPEG4/ISO/AVC
Duration : 1 h 4 min
Bit rate : 1 500 kb/s
Width : 720 pixels
Height : 400 pixels
Display aspect ratio : 16:9
Frame rate mode : Constant
Frame rate : 23.976 (24000/1001) FPS
Color space : YUV
Chroma subsampling : 4:2:0
Bit depth : 8 bits
Scan type : Progressive
Bits/(Pixel*Frame) : 0.217
Stream size : 691 MiB (77%)
Writing library : x264 core 148 r2708 86b7198
Encoding settings : cabac=0 / ref=1 / deblock=1:0:0 / analyse=0x1:0x111 / me=hex / subme=2 / psy=1 / psy_rd=1.00:0.00 / mixed_ref=0 / me_range=16 / chroma_me=1 / trellis=0 / 8x8dct=0 / cqm=0 / deadzone=21,11 / fast_pskip=1 / chroma_qp_offset=0 / threads=12 / lookahead_threads=3 / sliced_threads=0 / nr=0 / decimate=1 / interlaced=0 / bluray_compat=0 / constrained_intra=0 / bframes=0 / weightp=0 / keyint=240 / keyint_min=24 / scenecut=40 / intra_refresh=0 / rc_lookahead=10 / rc=2pass / mbtree=1 / bitrate=1500 / ratetol=1.0 / qcomp=0.60 / qpmin=0 / qpmax=69 / qpstep=4 / cplxblur=20.0 / qblur=0.5 / vbv_maxrate=14000 / vbv_bufsize=14000 / nal_hrd=none / filler=0 / ip_ratio=1.40 / aq=1:1.00
Default : Yes
Forced : No
Color range : Limited
Color primaries : BT.709
Transfer characteristics : BT.709
Matrix coefficients : BT.709

Audio
ID : 2
Format : AC-3
Format/Info : Audio Coding 3
Format settings, Endianness : Big
Codec ID : A_AC3
Duration : 1 h 4 min
Bit rate mode : Constant
Bit rate : 448 kb/s
Channel(s) : 6 channels
Channel positions : Front: L C R, Side: L R, LFE
Sampling rate : 48.0 kHz
Frame rate : 31.250 FPS (1536 spf)
Bit depth : 16 bits
Compression mode : Lossy
Delay relative to video : 20 ms
Stream size : 206 MiB (23%)
Title : Surround
Language : English
Service kind : Complete Main
Default : Yes
Forced : No





General
Unique ID : 170661813260454115284195891068386677887 (0x80644507ECC0DB338EEC9EBAA4AC147F)
Complete name : D:\Downloads\Game.of.Thrones.S07E03.The.Queens.Justice.720p.AMZN.WEB-DL.DDP5.1.H.264-GoT.mkv
Format : Matroska
Format version : Version 4 / Version 2
File size : 1.38 GiB
Duration : 1 h 4 min
Overall bit rate mode : Variable
Overall bit rate : 3 056 kb/s
Encoded date : UTC 2017-07-31 01:17:35
Writing application : mkvmerge v7.6.0 ('Garden of Dreams') 64bit built on Feb 8 2015 13:04:34
Writing library : libebml v1.3.1 + libmatroska v1.4.2

Video
ID : 1
Format : AVC
Format/Info : Advanced Video Codec
Format profile : High@L3.1
Format settings, CABAC : Yes
Format settings, ReFrames : 5 frames
Codec ID : V_MPEG4/ISO/AVC
Duration : 1 h 4 min
Bit rate mode : Variable
Bit rate : 2 414 kb/s
Maximum bit rate : 4 500 kb/s
Width : 1 280 pixels
Height : 720 pixels
Display aspect ratio : 16:9
Frame rate mode : Constant
Frame rate : 23.976 (24000/1001) FPS
Color space : YUV
Chroma subsampling : 4:2:0
Bit depth : 8 bits
Scan type : Progressive
Bits/(Pixel*Frame) : 0.109
Stream size : 1.09 GiB (79%)
Default : Yes
Forced : No
Color range : Limited
Color primaries : BT.709
Transfer characteristics : BT.709
Matrix coefficients : BT.709

Audio
ID : 2
Format : E-AC-3
Format/Info : Enhanced Audio Coding 3
Format settings, Endianness : Big
Codec ID : A_EAC3
Duration : 1 h 4 min
Bit rate mode : Constant
Bit rate : 640 kb/s
Channel(s) : 6 channels
Channel positions : Front: L C R, Side: L R, LFE
Sampling rate : 48.0 kHz
Frame rate : 187.500 FPS (256 spf)
Compression mode : Lossy
Delay relative to video : 25 ms
Stream size : 295 MiB (21%)
Language : English
Service kind : Complete Main
Default : Yes
Forced : No

Text
ID : 3
Format : UTF-8
Codec ID : S_TEXT/UTF8
Codec ID/Info : UTF-8 Plain Text
Duration : 1 h 4 min
Bit rate : 69 b/s
Count of elements : 990
Stream size : 32.8 KiB (0%)
Language : English
Default : No
Forced : No

Menu
00:00:00.000 : en:Stay Tuned
00:00:00.041 : en:TV Rating
00:00:05.041 : en:Previously On
00:01:32.041 : en:Studio Logo
00:01:38.041 : en:Opening Credits
00:03:25.041 : en:Jon Snow arrives at Dragonstone; Dragonstone
00:09:22.041 : en:The King meets the Queen; Dragonstone
00:19:53.041 : en:Euron returns with his captives; King's Landing
00:24:45.041 : en:The Queen's justice; King's Landing
00:29:31.041 : en:The Iron Bank wants its gold back; King's Landing
00:33:52.041 : en:Tyrion tries to help Jon; Dragonstone
00:39:37.041 : en:Daenerys and Jon negotiate; Dragonstone
00:41:32.041 : en:Sansa receives an unexpected visitor; Winterfell
00:47:00.041 : en:Archmaester Ebrose examines Jorah; Oldtown
00:51:15.041 : en:Daenerys and her advisers discuss strategy; Dragonstone
00:54:53.041 : en:The Lannisters arrive; Highgarden
01:02:34.041 : en:End Credits
01:03:53.041 : en:Next On
01:04:23.041 : en:Online Extra





General
Format : Matroska
Format version : Version 4 / Version 2
File size : 4.24 GiB
Duration : 1 h 4 min
Overall bit rate mode : Variable
Overall bit rate : 9 421 kb/s
Encoded date : UTC 2017-07-31 01:11:44
Writing application : mkvmerge v7.6.0 ('Garden of Dreams') 64bit built on Feb 8 2015 13:04:34
Writing library : libebml v1.3.1 + libmatroska v1.4.2

Video
ID : 1
Format : AVC
Format/Info : Advanced Video Codec
Format profile : High@L4
Format settings, CABAC : Yes
Format settings, ReFrames : 4 frames
Codec ID : V_MPEG4/ISO/AVC
Duration : 1 h 4 min
Bit rate mode : Variable
Bit rate : 8 778 kb/s
Maximum bit rate : 15.0 Mb/s
Width : 1 920 pixels
Height : 1 080 pixels
Display aspect ratio : 16:9
Frame rate mode : Constant
Frame rate : 23.976 (24000/1001) FPS
Color space : YUV
Chroma subsampling : 4:2:0
Bit depth : 8 bits
Scan type : Progressive
Bits/(Pixel*Frame) : 0.177
Stream size : 3.95 GiB (93%)
Default : Yes
Forced : No
Color range : Limited
Color primaries : BT.709
Transfer characteristics : BT.709
Matrix coefficients : BT.709

Audio
ID : 2
Format : E-AC-3
Format/Info : Enhanced Audio Coding 3
Format settings, Endianness : Big
Codec ID : A_EAC3
Duration : 1 h 4 min
Bit rate mode : Constant
Bit rate : 640 kb/s
Channel(s) : 6 channels
Channel positions : Front: L C R, Side: L R, LFE
Sampling rate : 48.0 kHz
Frame rate : 187.500 FPS (256 spf)
Compression mode : Lossy
Delay relative to video : 25 ms
Stream size : 295 MiB (7%)
Language : English
Default : Yes
Forced : No

Text
ID : 3
Format : UTF-8
Codec ID : S_TEXT/UTF8
Codec ID/Info : UTF-8 Plain Text
Duration : 1 h 4 min
Bit rate : 69 b/s
Count of elements : 990
Stream size : 32.8 KiB (0%)
Language : English
Default : No
Forced : No

Menu
00:00:00.000 : en:Stay Tuned
00:00:00.041 : en:TV Rating
00:00:05.041 : en:Previously On
00:01:32.041 : en:Studio Logo
00:01:38.041 : en:Opening Credits
00:03:25.041 : en:Jon Snow arrives at Dragonstone; Dragonstone
00:09:22.041 : en:The King meets the Queen; Dragonstone
00:19:53.041 : en:Euron returns with his captives; King's Landing
00:24:45.041 : en:The Queen's justice; King's Landing
00:29:31.041 : en:The Iron Bank wants its gold back; King's Landing
00:33:52.041 : en:Tyrion tries to help Jon; Dragonstone
00:39:37.041 : en:Daenerys and Jon negotiate; Dragonstone
00:41:32.041 : en:Sansa receives an unexpected visitor; Winterfell
00:47:00.041 : en:Archmaester Ebrose examines Jorah; Oldtown
00:51:15.041 : en:Daenerys and her advisers discuss strategy; Dragonstone
00:54:53.041 : en:The Lannisters arrive; Highgarden
01:02:34.041 : en:End Credits
01:03:53.041 : en:Next On
01:04:23.041 : en:Online Extra






General
Unique ID : 202134624650393044239798551564653096751 (0x9811B66FA6C87223A24CBE6F8CD6EF2F)
Complete name : C:\Game.of.Thrones.S07E03.The.Queens.Justice.720p.AMZN.WEBRip.HEVC.mkv
Format : Matroska
Format version : Version 4 / Version 2
File size : 976 MiB
Duration : 1 h 4 min
Overall bit rate : 2 118 kb/s
Encoded date : UTC 2017-07-31 01:43:35
Writing application : mkvmerge v8.3.0 ('Over the Horizon') 64bit
Writing library : libebml v1.3.1 + libmatroska v1.4.2

Video
ID : 1
Format : HEVC
Format/Info : High Efficiency Video Coding
Format profile : Main@L3.1@Main
Codec ID : V_MPEGH/ISO/HEVC
Duration : 1 h 4 min
Bit rate : 1 476 kb/s
Width : 1 280 pixels
Height : 720 pixels
Display aspect ratio : 16:9
Frame rate mode : Constant
Frame rate : 23.976 (24000/1001) FPS
Color space : YUV
Chroma subsampling : 4:2:0
Bit depth : 8 bits
Bits/(Pixel*Frame) : 0.067
Stream size : 680 MiB (70%)
Writing library : x265 2.1:[Windows][GCC 5.4.0][64 bit] 8bit
Encoding settings : wpp / ctu=32 / min-cu-size=16 / max-tu-size=32 / tu-intra-depth=1 / tu-inter-depth=1 / me=0 / subme=0 / merange=57 / no-rect / no-amp / max-merge=2 / temporal-mvp / early-skip / rskip / rdpenalty=0 / no-tskip / no-tskip-fast / strong-intra-smoothing / no-lossless / no-cu-lossless / no-constrained-intra / fast-intra / open-gop / no-temporal-layers / interlace=0 / keyint=240 / min-keyint=24 / scenecut=0 / rc-lookahead=5 / lookahead-slices=4 / bframes=3 / bframe-bias=0 / b-adapt=0 / ref=1 / limit-refs=0 / no-limit-modes / no-weightp / no-weightb / aq-mode=1 / qg-size=32 / aq-strength=0.00 / cbqpoffs=0 / crqpoffs=0 / rd=2 / psy-rd=2.00 / rdoq-level=0 / psy-rdoq=0.00 / log2-max-poc-lsb=8 / no-rd-refine / no-signhide / deblock=0:0 / no-sao / no-sao-non-deblock / b-pyramid / cutree / no-intra-refresh / rc=abr / bitrate=1500 / qcomp=0.60 / qpmin=0 / qpmax=69 / qpstep=4 / ipratio=1.40 / pbratio=1.30
Default : Yes
Forced : No
Color range : Limited
Color primaries : BT.709
Transfer characteristics : BT.709
Matrix coefficients : BT.709

Audio
ID : 2
Format : E-AC-3
Format/Info : Enhanced Audio Coding 3
Format settings, Endianness : Big
Codec ID : A_EAC3
Duration : 1 h 4 min
Bit rate mode : Constant
Bit rate : 640 kb/s
Channel(s) : 6 channels
Channel positions : Front: L C R, Side: L R, LFE
Sampling rate : 48.0 kHz
Frame rate : 187.500 FPS (256 spf)
Compression mode : Lossy
Delay relative to video : 25 ms
Stream size : 295 MiB (30%)
Title : Surround
Language : English
Service kind : Complete Main
Default : Yes
Forced : No





General
Unique ID : 250452555961083764961456590548452368467 (0xBC6B68602A80B629A3424969E731E053)
Complete name : A:\Game.of.Thrones.S07E03.The.Queens.Justice.1080p.AMZN.WEBRip.HEVC.mkv
Format : Matroska
Format version : Version 4 / Version 2
File size : 1.40 GiB
Duration : 1 h 4 min
Overall bit rate : 3 106 kb/s
Encoded date : UTC 2017-07-31 01:59:52
Writing application : mkvmerge v8.3.0 ('Over the Horizon') 64bit
Writing library : libebml v1.3.1 + libmatroska v1.4.2

Video
ID : 1
Format : HEVC
Format/Info : High Efficiency Video Coding
Format profile : Main@L4@Main
Codec ID : V_MPEGH/ISO/HEVC
Duration : 1 h 4 min
Bit rate : 2 464 kb/s
Width : 1 920 pixels
Height : 1 080 pixels
Display aspect ratio : 16:9
Frame rate mode : Constant
Frame rate : 23.976 (24000/1001) FPS
Color space : YUV
Chroma subsampling : 4:2:0
Bit depth : 8 bits
Bits/(Pixel*Frame) : 0.050
Stream size : 1.11 GiB (79%)
Writing library : x265 2.1:[Windows][GCC 5.4.0][64 bit] 8bit
Encoding settings : wpp / ctu=32 / min-cu-size=16 / max-tu-size=32 / tu-intra-depth=1 / tu-inter-depth=1 / me=0 / subme=0 / merange=57 / no-rect / no-amp / max-merge=2 / temporal-mvp / early-skip / rskip / rdpenalty=0 / no-tskip / no-tskip-fast / strong-intra-smoothing / no-lossless / no-cu-lossless / no-constrained-intra / fast-intra / open-gop / no-temporal-layers / interlace=0 / keyint=240 / min-keyint=24 / scenecut=0 / rc-lookahead=5 / lookahead-slices=6 / bframes=3 / bframe-bias=0 / b-adapt=0 / ref=1 / limit-refs=0 / no-limit-modes / no-weightp / no-weightb / aq-mode=1 / qg-size=32 / aq-strength=0.00 / cbqpoffs=0 / crqpoffs=0 / rd=2 / psy-rd=2.00 / rdoq-level=0 / psy-rdoq=0.00 / log2-max-poc-lsb=8 / no-rd-refine / no-signhide / deblock=0:0 / no-sao / no-sao-non-deblock / b-pyramid / cutree / no-intra-refresh / rc=abr / bitrate=2500 / qcomp=0.60 / qpmin=0 / qpmax=69 / qpstep=4 / ipratio=1.40 / pbratio=1.30
Default : Yes
Forced : No
Color range : Limited
Color primaries : BT.709
Transfer characteristics : BT.709
Matrix coefficients : BT.709

Audio
ID : 2
Format : E-AC-3
Format/Info : Enhanced Audio Coding 3
Format settings, Endianness : Big
Codec ID : A_EAC3
Duration : 1 h 4 min
Bit rate mode : Constant
Bit rate : 640 kb/s
Channel(s) : 6 channels
Channel positions : Front: L C R, Side: L R, LFE
Sampling rate : 48.0 kHz
Frame rate : 187.500 FPS (256 spf)
Compression mode : Lossy
Delay relative to video : 25 ms
Stream size : 295 MiB (21%)
Language : English
Service kind : Complete Main
Default : Yes
Forced : No




Screenshots WEBRip

Game of Thrones S07E03 (2017)

Game of Thrones S07E03 (2017)

Game of Thrones S07E03 (2017)


Screenshots WEBRip 6ch

Game of Thrones S07E03 (2017)

Game of Thrones S07E03 (2017)

Game of Thrones S07E03 (2017)


Screenshots WEBRip 720p

Game of Thrones S07E03 (2017)

Game of Thrones S07E03 (2017)

Game of Thrones S07E03 (2017)


Screenshots WEBRip 1080p

Game of Thrones S07E03 (2017)

Game of Thrones S07E03 (2017)

Game of Thrones S07E03 (2017)


Screenshots WEBRip 720p HEVC

Game of Thrones S07E03 (2017)

Game of Thrones S07E03 (2017)

Game of Thrones S07E03 (2017)


Screenshots WEBRip 1080p HEVC

Game of Thrones S07E03 (2017)

Game of Thrones S07E03 (2017)

Game of Thrones S07E03 (2017)