Tags
Language
Tags

Game of Thrones S07E05 (2017)

Posted By: JohnSmith
Game of Thrones S07E05 (2017)

Game of Thrones S07E05 (2017)
WEBRip | MKV / AVC@1500 kb/s | 720x400 | 1h 0mn | 820 MB | English: AC3, 384 kb/s (6 ch)
WEBRip 720p | MKV / AVC@2749 kb/s | 1280x720 | 1h 0mn | 1.23 GB
English: AC3, 640 kb/s (6 ch) | Subtitles: English
WEBRip 1080p | MKV / AVC@7096 kb/s | 1920x1080 | 1h 0mn | 3.30 GB
English: AC3, 640 kb/s (6 ch) | Subtitles: English
WEBRip 720p | MKV / HEVC@1483 kb/s | 1280x720 | 1h 0mn | 927 MB | English: AC3, 640 kb/s (6 ch)
WEBRip 1080p | MKV / HEVC@1990 kb/s | 1920x1080 | 1h 0mn | 1.12 GB | English: AC3, 640 kb/s (6 ch)
Genre: Adventure | Drama | Fantasy

In the mythical continent of Westeros, several powerful families fight for control of the Seven Kingdoms. As conflict erupts in the kingdoms of men, an ancient enemy rises once again to threaten them all. Meanwhile, the last heirs of a recently usurped dynasty plot to take back their homeland from across the Narrow Sea.

IMDB - Top Rated TV #4 | Won 1 Golden Globe. Another 244 wins & 414 nominations.



General
Unique ID : 245210289268057723896092948948077977188 (0xB879C8AC2F2118A2ABADD1D2FD4F1E64)
Complete name : A:\Game.of.Thrones.S07E05.WEBRip.mkv
Format : Matroska
Format version : Version 4 / Version 2
File size : 821 MiB
Duration : 1 h 0 min
Overall bit rate : 1 883 kb/s
Encoded date : UTC 2017-08-14 01:28:58
Writing application : mkvmerge v8.3.0 ('Over the Horizon') 64bit
Writing library : libebml v1.3.1 + libmatroska v1.4.2

Video
ID : 1
Format : AVC
Format/Info : Advanced Video Codec
Format profile : Baseline@L3.1
Format settings, CABAC : No
Format settings, ReFrames : 1 frame
Codec ID : V_MPEG4/ISO/AVC
Duration : 1 h 0 min
Bit rate : 1 500 kb/s
Width : 720 pixels
Height : 400 pixels
Display aspect ratio : 16:9
Frame rate mode : Constant
Frame rate : 23.976 (24000/1001) FPS
Color space : YUV
Chroma subsampling : 4:2:0
Bit depth : 8 bits
Scan type : Progressive
Bits/(Pixel*Frame) : 0.217
Stream size : 653 MiB (80%)
Writing library : x264 core 148 r2708 86b7198
Encoding settings : cabac=0 / ref=1 / deblock=1:0:0 / analyse=0x1:0x111 / me=hex / subme=2 / psy=1 / psy_rd=1.00:0.00 / mixed_ref=0 / me_range=16 / chroma_me=1 / trellis=0 / 8x8dct=0 / cqm=0 / deadzone=21,11 / fast_pskip=1 / chroma_qp_offset=0 / threads=12 / lookahead_threads=3 / sliced_threads=0 / nr=0 / decimate=1 / interlaced=0 / bluray_compat=0 / constrained_intra=0 / bframes=0 / weightp=0 / keyint=240 / keyint_min=24 / scenecut=40 / intra_refresh=0 / rc_lookahead=10 / rc=2pass / mbtree=1 / bitrate=1500 / ratetol=1.0 / qcomp=0.60 / qpmin=0 / qpmax=69 / qpstep=4 / cplxblur=20.0 / qblur=0.5 / vbv_maxrate=14000 / vbv_bufsize=14000 / nal_hrd=none / filler=0 / ip_ratio=1.40 / aq=1:1.00
Default : Yes
Forced : No
Color range : Limited
Color primaries : BT.709
Transfer characteristics : BT.709
Matrix coefficients : BT.709

Audio
ID : 2
Format : AC-3
Format/Info : Audio Coding 3
Format settings, Endianness : Big
Codec ID : A_AC3
Duration : 1 h 0 min
Bit rate mode : Constant
Bit rate : 384 kb/s
Channel(s) : 6 channels
Channel positions : Front: L C R, Side: L R, LFE
Sampling rate : 48.0 kHz
Frame rate : 31.250 FPS (1536 spf)
Bit depth : 16 bits
Compression mode : Lossy
Delay relative to video : 1 ms
Stream size : 167 MiB (20%)
Title : Surround
Language : English
Service kind : Complete Main
Default : Yes
Forced : No





General
Unique ID : 183619891831381985533521751248275347214 (0x8A23E7A163133BC2A93CCBA88465970E)
Complete name : D:\Downloads\Game.of.Thrones.S07E05.Eastwatch.720p.AMZN.WEB-DL.DDP5.1.H.264-GoT.mkv
Format : Matroska
Format version : Version 4 / Version 2
File size : 1.23 GiB
Duration : 1 h 0 min
Overall bit rate mode : Variable
Overall bit rate : 2 891 kb/s
Encoded date : UTC 2017-08-14 01:10:25
Writing application : mkvmerge v7.6.0 ('Garden of Dreams') 64bit built on Feb 8 2015 13:04:34
Writing library : libebml v1.3.1 + libmatroska v1.4.2

Video
ID : 1
Format : AVC
Format/Info : Advanced Video Codec
Format profile : High@L3.1
Format settings, CABAC : Yes
Format settings, ReFrames : 5 frames
Codec ID : V_MPEG4/ISO/AVC
Duration : 1 h 0 min
Bit rate mode : Variable
Bit rate : 2 249 kb/s
Maximum bit rate : 4 500 kb/s
Width : 1 280 pixels
Height : 720 pixels
Display aspect ratio : 16:9
Frame rate mode : Constant
Frame rate : 23.976 (24000/1001) FPS
Color space : YUV
Chroma subsampling : 4:2:0
Bit depth : 8 bits
Scan type : Progressive
Bits/(Pixel*Frame) : 0.102
Stream size : 981 MiB (78%)
Default : Yes
Forced : No
Color range : Limited
Color primaries : BT.709
Transfer characteristics : BT.709
Matrix coefficients : BT.709

Audio
ID : 2
Format : E-AC-3
Format/Info : Enhanced Audio Coding 3
Format settings, Endianness : Big
Codec ID : A_EAC3
Duration : 1 h 0 min
Bit rate mode : Constant
Bit rate : 640 kb/s
Channel(s) : 6 channels
Channel positions : Front: L C R, Side: L R, LFE
Sampling rate : 48.0 kHz
Frame rate : 187.500 FPS (256 spf)
Compression mode : Lossy
Delay relative to video : 6 ms
Stream size : 279 MiB (22%)
Language : English
Service kind : Complete Main
Default : Yes
Forced : No

Text
ID : 3
Format : UTF-8
Codec ID : S_TEXT/UTF8
Codec ID/Info : UTF-8 Plain Text
Duration : 1 h 0 min
Bit rate : 55 b/s
Count of elements : 779
Stream size : 24.7 KiB (0%)
Language : English
Default : No
Forced : No

Menu
00:00:00.000 : en:(Unnamed scene)
00:00:02.622 : en:(Unnamed scene)
00:01:28.622 : en:(Unnamed scene)
00:01:33.622 : en:(Unnamed scene)
00:03:20.622 : en:(Unnamed scene)
00:05:12.622 : en:(Unnamed scene)
00:11:19.622 : en:(Unnamed scene)
00:13:57.622 : en:(Unnamed scene)
00:18:23.622 : en:(Unnamed scene)
00:19:51.622 : en:(Unnamed scene)
00:22:52.622 : en:(Unnamed scene)
00:28:10.622 : en:(Unnamed scene)
00:31:09.622 : en:(Unnamed scene)
00:34:11.622 : en:(Unnamed scene)
00:39:44.622 : en:(Unnamed scene)
00:42:39.622 : en:(Unnamed scene)
00:44:43.622 : en:(Unnamed scene)
00:46:46.622 : en:(Unnamed scene)
00:50:07.622 : en:(Unnamed scene)
00:53:59.622 : en:(Unnamed scene)
00:58:36.622 : en:(Unnamed scene)
00:59:54.622 : en:(Unnamed scene)
01:00:55.622 : en:(Unnamed scene)




General
Unique ID : 171228125521678245878518688818516735002 (0x80D1566192C085D7B5C0E4876EC0341A)
Complete name : D:\Downloads\Game.of.Thrones.S07E05.Eastwatch.1080p.AMZN.WEB-DL.DDP5.1.H.264-GoT.mkv
Format : Matroska
Format version : Version 4 / Version 2
File size : 3.30 GiB
Duration : 1 h 0 min
Overall bit rate mode : Variable
Overall bit rate : 7 738 kb/s
Encoded date : UTC 2017-08-14 01:05:15
Writing application : mkvmerge v7.6.0 ('Garden of Dreams') 64bit built on Feb 8 2015 13:04:34
Writing library : libebml v1.3.1 + libmatroska v1.4.2

Video
ID : 1
Format : AVC
Format/Info : Advanced Video Codec
Format profile : High@L4
Format settings, CABAC : Yes
Format settings, ReFrames : 4 frames
Codec ID : V_MPEG4/ISO/AVC
Duration : 1 h 0 min
Bit rate mode : Variable
Bit rate : 7 096 kb/s
Maximum bit rate : 15.0 Mb/s
Width : 1 920 pixels
Height : 1 080 pixels
Display aspect ratio : 16:9
Frame rate mode : Constant
Frame rate : 23.976 (24000/1001) FPS
Color space : YUV
Chroma subsampling : 4:2:0
Bit depth : 8 bits
Scan type : Progressive
Bits/(Pixel*Frame) : 0.143
Stream size : 3.02 GiB (92%)
Default : Yes
Forced : No
Color range : Limited
Color primaries : BT.709
Transfer characteristics : BT.709
Matrix coefficients : BT.709

Audio
ID : 2
Format : E-AC-3
Format/Info : Enhanced Audio Coding 3
Format settings, Endianness : Big
Codec ID : A_EAC3
Duration : 1 h 0 min
Bit rate mode : Constant
Bit rate : 640 kb/s
Channel(s) : 6 channels
Channel positions : Front: L C R, Side: L R, LFE
Sampling rate : 48.0 kHz
Frame rate : 187.500 FPS (256 spf)
Compression mode : Lossy
Delay relative to video : 6 ms
Stream size : 279 MiB (8%)
Language : English
Service kind : Complete Main
Default : Yes
Forced : No

Text
ID : 3
Format : UTF-8
Codec ID : S_TEXT/UTF8
Codec ID/Info : UTF-8 Plain Text
Duration : 1 h 0 min
Bit rate : 55 b/s
Count of elements : 779
Stream size : 24.7 KiB (0%)
Language : English
Default : No
Forced : No

Menu
00:00:00.000 : en:(Unnamed scene)
00:00:02.622 : en:(Unnamed scene)
00:01:28.622 : en:(Unnamed scene)
00:01:33.622 : en:(Unnamed scene)
00:03:20.622 : en:(Unnamed scene)
00:05:12.622 : en:(Unnamed scene)
00:11:19.622 : en:(Unnamed scene)
00:13:57.622 : en:(Unnamed scene)
00:18:23.622 : en:(Unnamed scene)
00:19:51.622 : en:(Unnamed scene)
00:22:52.622 : en:(Unnamed scene)
00:28:10.622 : en:(Unnamed scene)
00:31:09.622 : en:(Unnamed scene)
00:34:11.622 : en:(Unnamed scene)
00:39:44.622 : en:(Unnamed scene)
00:42:39.622 : en:(Unnamed scene)
00:44:43.622 : en:(Unnamed scene)
00:46:46.622 : en:(Unnamed scene)
00:50:07.622 : en:(Unnamed scene)
00:53:59.622 : en:(Unnamed scene)
00:58:36.622 : en:(Unnamed scene)
00:59:54.622 : en:(Unnamed scene)
01:00:55.622 : en:(Unnamed scene)





General
Unique ID : 189954526980893499653349560839534707105 (0x8EE7E941ADFC1B94B157F0246CCE81A1)
Complete name : A:\Game.of.Thrones.S07E05.720p.WEBRip.HEVC.mkv
Format : Matroska
Format version : Version 4 / Version 2
File size : 927 MiB
Duration : 1 h 0 min
Overall bit rate : 2 125 kb/s
Encoded date : UTC 2017-08-14 01:47:31
Writing application : mkvmerge v8.3.0 ('Over the Horizon') 64bit
Writing library : libebml v1.3.1 + libmatroska v1.4.2

Video
ID : 1
Format : HEVC
Format/Info : High Efficiency Video Coding
Format profile : Main@L3.1@Main
Codec ID : V_MPEGH/ISO/HEVC
Duration : 1 h 0 min
Bit rate : 1 483 kb/s
Width : 1 280 pixels
Height : 720 pixels
Display aspect ratio : 16:9
Frame rate mode : Constant
Frame rate : 23.976 (24000/1001) FPS
Color space : YUV
Chroma subsampling : 4:2:0
Bit depth : 8 bits
Bits/(Pixel*Frame) : 0.067
Stream size : 647 MiB (70%)
Writing library : x265 2.1:[Windows][GCC 5.4.0][64 bit] 8bit
Encoding settings : wpp / ctu=32 / min-cu-size=16 / max-tu-size=32 / tu-intra-depth=1 / tu-inter-depth=1 / me=0 / subme=0 / merange=57 / no-rect / no-amp / max-merge=2 / temporal-mvp / early-skip / rskip / rdpenalty=0 / no-tskip / no-tskip-fast / strong-intra-smoothing / no-lossless / no-cu-lossless / no-constrained-intra / fast-intra / open-gop / no-temporal-layers / interlace=0 / keyint=240 / min-keyint=24 / scenecut=0 / rc-lookahead=5 / lookahead-slices=4 / bframes=3 / bframe-bias=0 / b-adapt=0 / ref=1 / limit-refs=0 / no-limit-modes / no-weightp / no-weightb / aq-mode=1 / qg-size=32 / aq-strength=0.00 / cbqpoffs=0 / crqpoffs=0 / rd=2 / psy-rd=2.00 / rdoq-level=0 / psy-rdoq=0.00 / log2-max-poc-lsb=8 / no-rd-refine / no-signhide / deblock=0:0 / no-sao / no-sao-non-deblock / b-pyramid / cutree / no-intra-refresh / rc=abr / bitrate=1500 / qcomp=0.60 / qpmin=0 / qpmax=69 / qpstep=4 / ipratio=1.40 / pbratio=1.30
Default : Yes
Forced : No
Color range : Limited
Color primaries : BT.709
Transfer characteristics : BT.709
Matrix coefficients : BT.709

Audio
ID : 2
Format : E-AC-3
Format/Info : Enhanced Audio Coding 3
Format settings, Endianness : Big
Codec ID : A_EAC3
Duration : 1 h 0 min
Bit rate mode : Constant
Bit rate : 640 kb/s
Channel(s) : 6 channels
Channel positions : Front: L C R, Side: L R, LFE
Sampling rate : 48.0 kHz
Frame rate : 187.500 FPS (256 spf)
Compression mode : Lossy
Delay relative to video : 6 ms
Stream size : 279 MiB (30%)
Language : English
Service kind : Complete Main
Default : Yes
Forced : No





General
Unique ID : 200056182498338962668389369415724607223 (0x96816B5387FC514C8AC86B366EDAA6F7)
Complete name : A:\Game.of.Thrones.S07E05.1080p.WEBRip.HEVC.mkv
Format : Matroska
Format version : Version 4 / Version 2
File size : 1.12 GiB
Duration : 1 h 0 min
Overall bit rate : 2 632 kb/s
Encoded date : UTC 2017-08-14 02:05:04
Writing application : mkvmerge v8.3.0 ('Over the Horizon') 64bit
Writing library : libebml v1.3.1 + libmatroska v1.4.2

Video
ID : 1
Format : HEVC
Format/Info : High Efficiency Video Coding
Format profile : Main@L4@Main
Codec ID : V_MPEGH/ISO/HEVC
Duration : 1 h 0 min
Bit rate : 1 990 kb/s
Width : 1 920 pixels
Height : 1 080 pixels
Display aspect ratio : 16:9
Frame rate mode : Constant
Frame rate : 23.976 (24000/1001) FPS
Color space : YUV
Chroma subsampling : 4:2:0
Bit depth : 8 bits
Bits/(Pixel*Frame) : 0.040
Stream size : 868 MiB (76%)
Writing library : x265 2.1:[Windows][GCC 5.4.0][64 bit] 8bit
Encoding settings : wpp / ctu=32 / min-cu-size=16 / max-tu-size=32 / tu-intra-depth=1 / tu-inter-depth=1 / me=0 / subme=0 / merange=57 / no-rect / no-amp / max-merge=2 / temporal-mvp / early-skip / rskip / rdpenalty=0 / no-tskip / no-tskip-fast / strong-intra-smoothing / no-lossless / no-cu-lossless / no-constrained-intra / fast-intra / open-gop / no-temporal-layers / interlace=0 / keyint=240 / min-keyint=24 / scenecut=0 / rc-lookahead=5 / lookahead-slices=6 / bframes=3 / bframe-bias=0 / b-adapt=0 / ref=1 / limit-refs=0 / no-limit-modes / no-weightp / no-weightb / aq-mode=1 / qg-size=32 / aq-strength=0.00 / cbqpoffs=0 / crqpoffs=0 / rd=2 / psy-rd=2.00 / rdoq-level=0 / psy-rdoq=0.00 / log2-max-poc-lsb=8 / no-rd-refine / no-signhide / deblock=0:0 / no-sao / no-sao-non-deblock / b-pyramid / cutree / no-intra-refresh / rc=abr / bitrate=2000 / qcomp=0.60 / qpmin=0 / qpmax=69 / qpstep=4 / ipratio=1.40 / pbratio=1.30
Default : Yes
Forced : No
Color range : Limited
Color primaries : BT.709
Transfer characteristics : BT.709
Matrix coefficients : BT.709

Audio
ID : 2
Format : E-AC-3
Format/Info : Enhanced Audio Coding 3
Format settings, Endianness : Big
Codec ID : A_EAC3
Duration : 1 h 0 min
Bit rate mode : Constant
Bit rate : 640 kb/s
Channel(s) : 6 channels
Channel positions : Front: L C R, Side: L R, LFE
Sampling rate : 48.0 kHz
Frame rate : 187.500 FPS (256 spf)
Compression mode : Lossy
Delay relative to video : 6 ms
Stream size : 279 MiB (24%)
Language : English
Service kind : Complete Main
Default : Yes
Forced : No




Screenshots WEBRip

Game of Thrones S07E05 (2017)

Game of Thrones S07E05 (2017)

Game of Thrones S07E05 (2017)


Screenshots WEBRip 720p

Game of Thrones S07E05 (2017)

Game of Thrones S07E05 (2017)

Game of Thrones S07E05 (2017)


Screenshots WEBRip 1080p

Game of Thrones S07E05 (2017)

Game of Thrones S07E05 (2017)

Game of Thrones S07E05 (2017)


Screenshots WEBRip 720p HEVC

Game of Thrones S07E05 (2017)

Game of Thrones S07E05 (2017)

Game of Thrones S07E05 (2017)


Screenshots WEBRip 1080p HEVC

Game of Thrones S07E05 (2017)

Game of Thrones S07E05 (2017)

Game of Thrones S07E05 (2017)