Tags
Language
Tags

Game of Thrones S07E07 (2017)

Posted By: JohnSmith
Game of Thrones S07E07 (2017)

Game of Thrones S07E07 (2017)
WEBRip | MKV / AVC@1114 kb/s | 960x540 | 1h 21mn | 873 MB
English: AC3, 384 kb/s (6 ch) | Subtitles: English
WEBRip 720p | MKV / AVC@4500 kb/s | 1280x720 | 1h 21mn | 1.70 GB
English: AC3, 640 kb/s (6 ch) | Subtitles: English
WEBRip 1080p | MKV / AVC@7710 kb/s | 1920x1080 | 1h 21mn | 4.75 GB
English: AC3, 640 kb/s (6 ch) | Subtitles: English
WEBRip 720p | MKV / HEVC@1508 kb/s | 1280x720 | 1h 21mn | 1.22 GB | English: AC3, 640 kb/s (6 ch)
WEBRip 1080p | MKV / HEVC@2005 kb/s | 1920x1080 | 1h 21mn | 1.50 GB | English: AC3, 640 kb/s (6 ch)
Genre: Adventure | Drama | Fantasy

In the mythical continent of Westeros, several powerful families fight for control of the Seven Kingdoms. As conflict erupts in the kingdoms of men, an ancient enemy rises once again to threaten them all. Meanwhile, the last heirs of a recently usurped dynasty plot to take back their homeland from across the Narrow Sea.


General
Unique ID : 232372474575444001032302220789695633592 (0xAED14F8A45C29E46900EA2229CABD8B8)
Complete name : A:\Game.of.Thrones.S07E07.WEBRip.mkv
Format : Matroska
Format version : Version 4 / Version 2
File size : 873 MiB
Duration : 1 h 21 min
Overall bit rate mode : Variable
Overall bit rate : 1 500 kb/s
Encoded date : UTC 2017-08-28 01:22:20
Writing application : mkvmerge v8.3.0 ('Over the Horizon') 64bit
Writing library : libebml v1.3.1 + libmatroska v1.4.2

Video
ID : 1
Format : AVC
Format/Info : Advanced Video Codec
Format profile : High@L3.1
Format settings, CABAC : Yes
Format settings, ReFrames : 5 frames
Codec ID : V_MPEG4/ISO/AVC
Duration : 1 h 21 min
Bit rate mode : Variable
Bit rate : 1 114 kb/s
Maximum bit rate : 2 995 kb/s
Width : 960 pixels
Height : 540 pixels
Display aspect ratio : 16:9
Frame rate mode : Constant
Frame rate : 23.976 (24000/1001) FPS
Color space : YUV
Chroma subsampling : 4:2:0
Bit depth : 8 bits
Scan type : Progressive
Bits/(Pixel*Frame) : 0.090
Stream size : 648 MiB (74%)
Default : Yes
Forced : No
Color range : Limited
Color primaries : BT.709
Transfer characteristics : BT.709
Matrix coefficients : BT.709

Audio
ID : 2
Format : AC-3
Format/Info : Audio Coding 3
Format settings, Endianness : Big
Codec ID : A_AC3
Duration : 1 h 21 min
Bit rate mode : Constant
Bit rate : 384 kb/s
Channel(s) : 6 channels
Channel positions : Front: L C R, Side: L R, LFE
Sampling rate : 48.0 kHz
Frame rate : 31.250 FPS (1536 spf)
Bit depth : 16 bits
Compression mode : Lossy
Stream size : 223 MiB (26%)
Language : English
Service kind : Complete Main
Default : Yes
Forced : No

Text
ID : 3
Format : UTF-8
Codec ID : S_TEXT/UTF8
Codec ID/Info : UTF-8 Plain Text
Duration : 1 h 20 min
Bit rate : 51 b/s
Count of elements : 958
Stream size : 30.4 KiB (0%)
Language : English
Default : No
Forced : No

Menu
00:00:00.000 : en:Ratings
00:00:02.379 : en:Previously On
00:01:33.379 : en:Studio Logo
00:01:39.379 : en:Opening Credits
00:03:27.379 : en:Bronn oversees the fortifications
00:06:17.379 : en:Tyrion and Jon Snow sail to King's Landing
00:07:34.379 : en:Meeting at the dragonpit
00:30:13.379 : en:Tyrion tries to sway he sister's choice.
00:37:11.379 : en:Cersei returns
00:41:18.379 : en:Littlefinger and Sansa talk about how dangerous Arya is
00:44:56.379 : en:Jon Snow and Daenerys prepare to mobilize
00:50:10.379 : en:Harrag confronts Theon
00:54:30.379 : en:There's no justice in the world, not unless we make it
01:00:38.379 : en:Cersei threatens Jaime
01:05:57.379 : en:Samwell speaks with Bran
01:12:19.379 : en:Three Blasts
01:20:05.379 : en:End Credits
01:21:21.379 : en:Inside the Episode





General
Unique ID : 187382691411268958677538669875217171932 (0x8CF897F91C706A428A12D46A4DBA05DC)
Complete name : D:\Downloads\Game.of.Thrones.S07E07.The.Dragon.and.the.Wolf.720p.AMZN.WEB-DL.DDP5.1.H.264-GoT.mkv
Format : Matroska
Format version : Version 4 / Version 2
File size : 1.70 GiB
Duration : 1 h 21 min
Overall bit rate mode : Variable
Overall bit rate : 2 991 kb/s
Encoded date : UTC 2017-08-28 01:07:52
Writing application : mkvmerge v7.6.0 ('Garden of Dreams') 64bit built on Feb 8 2015 13:04:34
Writing library : libebml v1.3.1 + libmatroska v1.4.2

Video
ID : 1
Format : AVC
Format/Info : Advanced Video Codec
Format profile : High@L3.1
Format settings, CABAC : Yes
Format settings, ReFrames : 5 frames
Codec ID : V_MPEG4/ISO/AVC
Duration : 1 h 21 min
Bit rate mode : Variable
Bit rate : 2 349 kb/s
Maximum bit rate : 4 500 kb/s
Width : 1 280 pixels
Height : 720 pixels
Display aspect ratio : 16:9
Frame rate mode : Constant
Frame rate : 23.976 (24000/1001) FPS
Color space : YUV
Chroma subsampling : 4:2:0
Bit depth : 8 bits
Scan type : Progressive
Bits/(Pixel*Frame) : 0.106
Stream size : 1.34 GiB (79%)
Default : Yes
Forced : No
Color range : Limited
Color primaries : BT.709
Transfer characteristics : BT.709
Matrix coefficients : BT.709

Audio
ID : 2
Format : E-AC-3
Format/Info : Enhanced Audio Coding 3
Format settings, Endianness : Big
Codec ID : A_EAC3
Duration : 1 h 21 min
Bit rate mode : Constant
Bit rate : 640 kb/s
Channel(s) : 6 channels
Channel positions : Front: L C R, Side: L R, LFE
Sampling rate : 48.0 kHz
Frame rate : 187.500 FPS (256 spf)
Compression mode : Lossy
Delay relative to video : 27 ms
Stream size : 372 MiB (21%)
Language : English
Service kind : Complete Main
Default : Yes
Forced : No

Text
ID : 3
Format : UTF-8
Codec ID : S_TEXT/UTF8
Codec ID/Info : UTF-8 Plain Text
Duration : 1 h 20 min
Bit rate : 51 b/s
Count of elements : 958
Stream size : 30.4 KiB (0%)
Language : English
Default : No
Forced : No

Menu
00:00:00.000 : en:Ratings
00:00:02.379 : en:Previously On
00:01:33.379 : en:Studio Logo
00:01:39.379 : en:Opening Credits
00:03:27.379 : en:Bronn oversees the fortifications
00:06:17.379 : en:Tyrion and Jon Snow sail to King's Landing
00:07:34.379 : en:Meeting at the dragonpit
00:30:13.379 : en:Tyrion tries to sway he sister's choice.
00:37:11.379 : en:Cersei returns
00:41:18.379 : en:Littlefinger and Sansa talk about how dangerous Arya is
00:44:56.379 : en:Jon Snow and Daenerys prepare to mobilize
00:50:10.379 : en:Harrag confronts Theon
00:54:30.379 : en:There's no justice in the world, not unless we make it
01:00:38.379 : en:Cersei threatens Jaime
01:05:57.379 : en:Samwell speaks with Bran
01:12:19.379 : en:Three Blasts
01:20:05.379 : en:End Credits
01:21:21.379 : en:Inside the Episode





General
Unique ID : 184357942903999035051119465361969500531 (0x8AB20C5B953A0608A2B75B8406F3D173)
Complete name : D:\Downloads\Game.of.Thrones.S07E07.The.Dragon.and.the.Wolf.1080p.AMZN.WEB-DL.DDP5.1.H.264-GoT.mkv
Format : Matroska
Format version : Version 4 / Version 2
File size : 4.75 GiB
Duration : 1 h 21 min
Overall bit rate mode : Variable
Overall bit rate : 8 352 kb/s
Encoded date : UTC 2017-08-28 01:04:43
Writing application : mkvmerge v7.6.0 ('Garden of Dreams') 64bit built on Feb 8 2015 13:04:34
Writing library : libebml v1.3.1 + libmatroska v1.4.2

Video
ID : 1
Format : AVC
Format/Info : Advanced Video Codec
Format profile : High@L4
Format settings, CABAC : Yes
Format settings, ReFrames : 4 frames
Codec ID : V_MPEG4/ISO/AVC
Duration : 1 h 21 min
Bit rate mode : Variable
Bit rate : 7 710 kb/s
Maximum bit rate : 15.0 Mb/s
Width : 1 920 pixels
Height : 1 080 pixels
Display aspect ratio : 16:9
Frame rate mode : Constant
Frame rate : 23.976 (24000/1001) FPS
Color space : YUV
Chroma subsampling : 4:2:0
Bit depth : 8 bits
Scan type : Progressive
Bits/(Pixel*Frame) : 0.155
Stream size : 4.38 GiB (92%)
Default : Yes
Forced : No
Color range : Limited
Color primaries : BT.709
Transfer characteristics : BT.709
Matrix coefficients : BT.709

Audio
ID : 2
Format : E-AC-3
Format/Info : Enhanced Audio Coding 3
Format settings, Endianness : Big
Codec ID : A_EAC3
Duration : 1 h 21 min
Bit rate mode : Constant
Bit rate : 640 kb/s
Channel(s) : 6 channels
Channel positions : Front: L C R, Side: L R, LFE
Sampling rate : 48.0 kHz
Frame rate : 187.500 FPS (256 spf)
Compression mode : Lossy
Delay relative to video : 27 ms
Stream size : 372 MiB (8%)
Language : English
Service kind : Complete Main
Default : Yes
Forced : No

Text
ID : 3
Format : UTF-8
Codec ID : S_TEXT/UTF8
Codec ID/Info : UTF-8 Plain Text
Duration : 1 h 20 min
Bit rate : 51 b/s
Count of elements : 958
Stream size : 30.4 KiB (0%)
Language : English
Default : No
Forced : No

Menu
00:00:00.000 : en:Ratings
00:00:02.379 : en:Previously On
00:01:33.379 : en:Studio Logo
00:01:39.379 : en:Opening Credits
00:03:27.379 : en:Bronn oversees the fortifications
00:06:17.379 : en:Tyrion and Jon Snow sail to King's Landing
00:07:34.379 : en:Meeting at the dragonpit
00:30:13.379 : en:Tyrion tries to sway he sister's choice.
00:37:11.379 : en:Cersei returns
00:41:18.379 : en:Littlefinger and Sansa talk about how dangerous Arya is
00:44:56.379 : en:Jon Snow and Daenerys prepare to mobilize
00:50:10.379 : en:Harrag confronts Theon
00:54:30.379 : en:There's no justice in the world, not unless we make it
01:00:38.379 : en:Cersei threatens Jaime
01:05:57.379 : en:Samwell speaks with Bran
01:12:19.379 : en:Three Blasts
01:20:05.379 : en:End Credits
01:21:21.379 : en:Inside the Episode





General
Unique ID : 237713721583221181426633088533739570650 (0xB2D5FF59772CC5C39C86E7C6557385DA)
Complete name : A:\Game.of.Thrones.S07E07.WEBRip.HEVC.mkv
Format : Matroska
Format version : Version 4 / Version 2
File size : 1.22 GiB
Duration : 1 h 21 min
Overall bit rate : 2 150 kb/s
Encoded date : UTC 2017-08-28 01:37:58
Writing application : mkvmerge v8.3.0 ('Over the Horizon') 64bit
Writing library : libebml v1.3.1 + libmatroska v1.4.2

Video
ID : 1
Format : HEVC
Format/Info : High Efficiency Video Coding
Format profile : Main@L3.1@Main
Codec ID : V_MPEGH/ISO/HEVC
Duration : 1 h 21 min
Bit rate : 1 508 kb/s
Width : 1 280 pixels
Height : 720 pixels
Display aspect ratio : 16:9
Frame rate mode : Constant
Frame rate : 23.976 (24000/1001) FPS
Color space : YUV
Chroma subsampling : 4:2:0
Bit depth : 8 bits
Bits/(Pixel*Frame) : 0.068
Stream size : 878 MiB (70%)
Writing library : x265 2.1:[Windows][GCC 5.4.0][64 bit] 8bit
Encoding settings : wpp / ctu=32 / min-cu-size=16 / max-tu-size=32 / tu-intra-depth=1 / tu-inter-depth=1 / me=0 / subme=0 / merange=57 / no-rect / no-amp / max-merge=2 / temporal-mvp / early-skip / rskip / rdpenalty=0 / no-tskip / no-tskip-fast / strong-intra-smoothing / no-lossless / no-cu-lossless / no-constrained-intra / fast-intra / open-gop / no-temporal-layers / interlace=0 / keyint=240 / min-keyint=24 / scenecut=0 / rc-lookahead=5 / lookahead-slices=4 / bframes=3 / bframe-bias=0 / b-adapt=0 / ref=1 / limit-refs=0 / no-limit-modes / no-weightp / no-weightb / aq-mode=1 / qg-size=32 / aq-strength=0.00 / cbqpoffs=0 / crqpoffs=0 / rd=2 / psy-rd=2.00 / rdoq-level=0 / psy-rdoq=0.00 / log2-max-poc-lsb=8 / no-rd-refine / no-signhide / deblock=0:0 / no-sao / no-sao-non-deblock / b-pyramid / cutree / no-intra-refresh / rc=abr / bitrate=1500 / qcomp=0.60 / qpmin=0 / qpmax=69 / qpstep=4 / ipratio=1.40 / pbratio=1.30
Default : Yes
Forced : No
Color range : Limited
Color primaries : BT.709
Transfer characteristics : BT.709
Matrix coefficients : BT.709

Audio
ID : 2
Format : E-AC-3
Format/Info : Enhanced Audio Coding 3
Format settings, Endianness : Big
Codec ID : A_EAC3
Duration : 1 h 21 min
Bit rate mode : Constant
Bit rate : 640 kb/s
Channel(s) : 6 channels
Channel positions : Front: L C R, Side: L R, LFE
Sampling rate : 48.0 kHz
Frame rate : 187.500 FPS (256 spf)
Compression mode : Lossy
Delay relative to video : 27 ms
Stream size : 372 MiB (30%)
Title : Surround
Language : English
Service kind : Complete Main
Default : Yes
Forced : No





General
Unique ID : 220392107199178343378021164084115332092 (0xA5CDF9D304F4E1F0901E808CCFB8DBFC)
Complete name : A:\Game.of.Thrones.S07E07.WEBRip.1080p.HEVC.mkv
Format : Matroska
Format version : Version 4 / Version 2
File size : 1.50 GiB
Duration : 1 h 21 min
Overall bit rate : 2 647 kb/s
Encoded date : UTC 2017-08-28 01:43:14
Writing application : mkvmerge v8.3.0 ('Over the Horizon') 64bit
Writing library : libebml v1.3.1 + libmatroska v1.4.2

Video
ID : 1
Format : HEVC
Format/Info : High Efficiency Video Coding
Format profile : Main@L4@Main
Codec ID : V_MPEGH/ISO/HEVC
Duration : 1 h 21 min
Bit rate : 2 005 kb/s
Width : 1 920 pixels
Height : 1 080 pixels
Display aspect ratio : 16:9
Frame rate mode : Constant
Frame rate : 23.976 (24000/1001) FPS
Color space : YUV
Chroma subsampling : 4:2:0
Bit depth : 8 bits
Bits/(Pixel*Frame) : 0.040
Stream size : 1.14 GiB (76%)
Writing library : x265 2.1:[Windows][GCC 5.4.0][64 bit] 8bit
Encoding settings : wpp / ctu=32 / min-cu-size=16 / max-tu-size=32 / tu-intra-depth=1 / tu-inter-depth=1 / me=0 / subme=0 / merange=57 / no-rect / no-amp / max-merge=2 / temporal-mvp / early-skip / rskip / rdpenalty=0 / no-tskip / no-tskip-fast / strong-intra-smoothing / no-lossless / no-cu-lossless / no-constrained-intra / fast-intra / open-gop / no-temporal-layers / interlace=0 / keyint=240 / min-keyint=24 / scenecut=0 / rc-lookahead=5 / lookahead-slices=6 / bframes=3 / bframe-bias=0 / b-adapt=0 / ref=1 / limit-refs=0 / no-limit-modes / no-weightp / no-weightb / aq-mode=1 / qg-size=32 / aq-strength=0.00 / cbqpoffs=0 / crqpoffs=0 / rd=2 / psy-rd=2.00 / rdoq-level=0 / psy-rdoq=0.00 / log2-max-poc-lsb=8 / no-rd-refine / no-signhide / deblock=0:0 / no-sao / no-sao-non-deblock / b-pyramid / cutree / no-intra-refresh / rc=abr / bitrate=2000 / qcomp=0.60 / qpmin=0 / qpmax=69 / qpstep=4 / ipratio=1.40 / pbratio=1.30
Default : Yes
Forced : No
Color range : Limited
Color primaries : BT.709
Transfer characteristics : BT.709
Matrix coefficients : BT.709

Audio
ID : 2
Format : E-AC-3
Format/Info : Enhanced Audio Coding 3
Format settings, Endianness : Big
Codec ID : A_EAC3
Duration : 1 h 21 min
Bit rate mode : Constant
Bit rate : 640 kb/s
Channel(s) : 6 channels
Channel positions : Front: L C R, Side: L R, LFE
Sampling rate : 48.0 kHz
Frame rate : 187.500 FPS (256 spf)
Compression mode : Lossy
Delay relative to video : 27 ms
Stream size : 372 MiB (24%)
Language : English
Service kind : Complete Main
Default : Yes
Forced : No




Screenshots WEBRip

Game of Thrones S07E07 (2017)

Game of Thrones S07E07 (2017)

Game of Thrones S07E07 (2017)


Screenshots WEBRip 720p

Game of Thrones S07E07 (2017)

Game of Thrones S07E07 (2017)

Game of Thrones S07E07 (2017)


Screenshots WEBRip 1080p

Game of Thrones S07E07 (2017)

Game of Thrones S07E07 (2017)

Game of Thrones S07E07 (2017)


Screenshots WEBRip 720p HEVC

Game of Thrones S07E07 (2017)

Game of Thrones S07E07 (2017)

Game of Thrones S07E07 (2017)


Screenshots WEBRip 1080p HEVC

Game of Thrones S07E07 (2017)

Game of Thrones S07E07 (2017)

Game of Thrones S07E07 (2017)