Subcategories

Gaslight (1944)

Posted By: Without
Gaslight (1944)

Gaslight (1944)
WEB-DL 1080p | MKV | 1920x1080 | AVC@14.8 Mb/s | English AC3@224 kb/s
Subs: English | 2 channels | 1 h 53 min | 11.9 GB
Genre: Crime, Drama, Film-Noir

Years after her aunt was murdered in her home, a young woman moves back into the house with her new husband. However, he has a secret that he will do anything to protect, even if it means driving his wife insane.

IMDB - Won 2 Oscars. Another 3 wins & 7 nominations.


General
Gaslight.1944.1080p.AMZN.WEBRip.DDP2.0.x264-SbR\Gaslight.1944.1080p.WEB-DL.DD 2.0.H.264-SbR.mkv
Format : Matroska
Format version : Version 2
File size : 11.9 GiB
Duration : 1 h 53 min
Overall bit rate mode : Variable
Overall bit rate : 15.0 Mb/s
Encoded date : UTC 2017-07-29 18:25:58
Writing application : mkvmerge v14.0.0 ('Flow') 64bit
Writing library : libebml v1.3.4 + libmatroska v1.4.5
Cover : Yes
Attachments : cover.jpg

Video
ID : 1
Format : AVC
Format/Info : Advanced Video Codec
Format profile : High@L4
Format settings, CABAC : Yes
Format settings, ReFrames : 4 frames
Codec ID : V_MPEG4/ISO/AVC
Duration : 1 h 53 min
Bit rate mode : Variable
Bit rate : 14.8 Mb/s
Maximum bit rate : 15.0 Mb/s
Width : 1 920 pixels
Height : 1 080 pixels
Display aspect ratio : 16:9
Frame rate mode : Constant
Frame rate : 23.976 (24000/1001) FPS
Color space : YUV
Chroma subsampling : 4:2:0
Bit depth : 8 bits
Scan type : Progressive
Bits/(Pixel*Frame) : 0.298
Stream size : 11.8 GiB (98%)
Writing library : x264 core 148 r2623 d5b2374
Encoding settings : cabac=1 / ref=4 / deblock=1:-1:-1 / analyse=0x3:0x133 / me=umh / subme=9 / psy=1 / psy_rd=1.00:0.15 / mixed_ref=1 / me_range=24 / chroma_me=1 / trellis=2 / 8x8dct=1 / cqm=0 / deadzone=21,11 / fast_pskip=1 / chroma_qp_offset=-3 / threads=34 / lookahead_threads=5 / sliced_threads=0 / nr=150 / decimate=1 / interlaced=0 / bluray_compat=0 / constrained_intra=0 / bframes=8 / b_pyramid=2 / b_adapt=2 / b_bias=0 / direct=3 / weightb=1 / open_gop=0 / weightp=2 / keyint=120 / keyint_min=61 / scenecut=0 / intra_refresh=0 / rc_lookahead=120 / rc=crf / mbtree=1 / crf=18.0 / qcomp=0.60 / qpmin=0 / qpmax=69 / qpstep=4 / vbv_maxrate=15000 / vbv_bufsize=31250 / crf_max=0.0 / nal_hrd=vbr / filler=0 / ip_ratio=1.40 / aq=3:1.00
Language : English
Default : Yes
Forced : No
Color range : Limited
Color primaries : BT.709
Transfer characteristics : BT.709
Matrix coefficients : BT.709

Audio
ID : 2
Format : E-AC-3
Format/Info : Enhanced Audio Coding 3
Format settings, Endianness : Big
Codec ID : A_EAC3
Duration : 1 h 53 min
Bit rate mode : Constant
Bit rate : 224 kb/s
Channel(s) : 2 channels
Channel positions : Front: L R
Sampling rate : 48.0 kHz
Frame rate : 187.500 FPS (256 spf)
Compression mode : Lossy
Stream size : 182 MiB (1%)
Language : English
Default : Yes
Forced : No

Text #1
ID : 3
Format : UTF-8
Codec ID : S_TEXT/UTF8
Codec ID/Info : UTF-8 Plain Text
Duration : 1 h 51 min
Bit rate : 67 b/s
Count of elements : 1341
Stream size : 55.2 KiB (0%)
Language : English
Default : No
Forced : No

Text #2
ID : 4
Format : UTF-8
Codec ID : S_TEXT/UTF8
Codec ID/Info : UTF-8 Plain Text
Duration : 1 h 53 min
Bit rate : 70 b/s
Count of elements : 1421
Stream size : 58.4 KiB (0%)
Title : SDH
Language : English
Default : No
Forced : No

Menu
00:00:00.000 : en:01. Gaslit Credits
00:01:13.000 : en:02. Murder In Thornton Square
00:03:03.000 : en:03. Paula's New Love
00:08:20.000 : en:04. Miss Thwaites
00:11:16.000 : en:05. Dream House
00:15:45.000 : en:06. Happy And Sad Memories
00:21:13.000 : en:07. The Letter
00:23:53.000 : en:08. New Housemaid
00:26:39.000 : en:09. Gift Brooch
00:28:53.000 : en:10. Glimmers Of Recognition
00:32:57.000 : en:11. Things Missing And Odd
00:36:52.000 : en:12. Not Going Out
00:39:24.000 : en:13. Peculiar Feelings
00:43:02.000 : en:14. Imagining Things
00:47:09.000 : en:15. Unwanted Visitors
00:48:59.000 : en:16. A Moment's Waltz
00:51:24.000 : en:17. Picture Of Suspicion
00:56:42.000 : en:18. Staying And Going
01:01:02.000 : en:19. Invited To Lady Dalroy's
01:05:49.000 : en:20. At A Glance
01:09:15.000 : en:21. Matter Of The Watch
01:12:19.000 : en:22. Worse Than Lying
01:16:30.000 : en:23. Where Did He Go
01:19:15.000 : en:24. Hard Of Hearing
01:22:12.000 : en:25. A Way In
01:25:20.000 : en:26. Seeing And Hearing Together
01:30:55.000 : en:27. True Identity
01:34:51.000 : en:28. Treasure Found
01:37:18.000 : en:29. The Man Who Came
01:43:11.000 : en:30. For Jewels And Justice
01:46:31.000 : en:31. Because I Am Mad
01:51:24.000 : en:32. Starting To Clear
01:53:15.000 : en:33. Cast List


WEB-DL 1080p Screenshots

Gaslight (1944)

Gaslight (1944)

Gaslight (1944)

Gaslight (1944)

Gaslight (1944)


Come Visit My Blog (•‿•)