George Harrison: Living in the Material World (2011)

Posted By: Tutorial
George Harrison: Living in the Material World (2011)

George Harrison: Living in the Material World (2011)
1080p BluRay | 1920 x 1080 | .MKV/AVC @ 8439 Kbps | 2x~94mn | English DTS 1509 Kbps, 6 channels | 14.2 GB
Genre: Documentary, Biography, Music

Filmmaker Martin Scorsese examines the life of musician George Harrison, weaving together interviews, concert footage, home movies and photographs.
Director: Martin Scorsese
Stars: George Harrison, Paul McCartney, John Lennon

More info: IMDB

also You can look my other last: Music-posts

Related Documentaries:
George Harrison: Living in the Material World (2011)
George Harrison: Living in the Material World (2011)
George Harrison: 1943 - 2001 (2004)
The Beatles: Eight Days a Week (2016)
The Beatles: Eight Days a Week (2016)
BBC - Stuart Sutcliffe: The Lost Beatle (2005)
ITV - The Nation's Favourite Beatles Number One (2015)
ITV - I Was There: When the Beatles Played the Cavern (2011)
ITV - Paul McCartney and Wings: Band on the Run (2010)
ITV - The Beatles: A Grammy Salute (2014)
Good Ol' Freda (2013)
Good Ol' Freda (2013)

General
Unique ID : 236062639376977451701927898391737999053 (0xB19802B6345CAE069062F76E4CE71ECD)
Complete name : George.Harrison.Living.In.The.Material.World.2011.Part.1.mkv
Format : Matroska
Format version : Version 2
File size : 6.56 GiB
Duration : 1 h 34 min
Overall bit rate : 9 949 kb/s
Encoded date : UTC 2011-10-14 11:00:10
Writing application : mkvmerge v4.6.0 ('Still Crazy After All These Years') built on Mar 10 2011 02:50:32
Writing library : libebml v1.2.0 + libmatroska v1.1.0

Video
ID : 1
Format : AVC
Format/Info : Advanced Video Codec
Format profile : High@L4.1
Format settings, CABAC : Yes
Format settings, ReFrames : 4 frames
Codec ID : V_MPEG4/ISO/AVC
Duration : 1 h 34 min
Bit rate : 8 439 kb/s
Width : 1 920 pixels
Height : 1 080 pixels
Display aspect ratio : 16:9
Frame rate mode : Constant
Frame rate : 23.976 (24000/1001) FPS
Original frame rate : 23.976 (23976/1000) FPS
Color space : YUV
Chroma subsampling : 4:2:0
Bit depth : 8 bits
Scan type : Progressive
Bits/(Pixel*Frame) : 0.170
Stream size : 5.43 GiB (83%)
Writing library : x264 core 118 r2085 8a62835
Encoding settings : cabac=1 / ref=4 / deblock=1:0:0 / analyse=0x3:0x133 / me=umh / subme=7 / psy=1 / psy_rd=1.00:0.00 / mixed_ref=1 / me_range=16 / chroma_me=1 / trellis=1 / 8x8dct=1 / cqm=0 / deadzone=21,11 / fast_pskip=0 / chroma_qp_offset=-2 / threads=12 / sliced_threads=0 / nr=0 / decimate=1 / interlaced=0 / bluray_compat=0 / constrained_intra=0 / bframes=3 / b_pyramid=2 / b_adapt=2 / b_bias=0 / direct=3 / weightb=1 / open_gop=0 / weightp=2 / keyint=250 / keyint_min=23 / scenecut=40 / intra_refresh=0 / rc_lookahead=50 / rc=2pass / mbtree=1 / bitrate=8439 / ratetol=1.0 / qcomp=0.60 / qpmin=0 / qpmax=69 / qpstep=4 / cplxblur=20.0 / qblur=0.5 / ip_ratio=1.40 / aq=1:1.00
Language : English
Default : Yes
Forced : No

Audio
ID : 2
Format : DTS
Format/Info : Digital Theater Systems
Mode : 16
Format settings, Endianness : Big
Codec ID : A_DTS
Duration : 1 h 34 min
Bit rate mode : Constant
Bit rate : 1 509 kb/s
Channel(s) : 6 channels
Channel positions : Front: L C R, Side: L R, LFE
Sampling rate : 48.0 kHz
Frame rate : 93.750 FPS (512 spf)
Bit depth : 24 bits
Compression mode : Lossy
Stream size : 1 019 MiB (15%)
Language : English
Default : Yes
Forced : No
Screenshots

George Harrison: Living in the Material World (2011)

George Harrison: Living in the Material World (2011)

George Harrison: Living in the Material World (2011)

Welcome to my blog - daily update!

George Harrison: Living in the Material World (2011)