Tags
Language
Tags

George Michael: Live in London (2009)

Posted By: notbanned
George Michael: Live in London (2009)

George Michael: Live in London (2009)
DVDRip | 720x400 | .AVI/XviD @ 1042 Kbps | 2h 13mn | 1.39 GiB
Audio: English AC3 448 kbps, 6 channels | Subs: None
Genre: Documentary

Concert film of George Michael at Earls Court in London performing his farewell show after 25 years.
More info


General
Complete name : George.Michael.Live.in.London.DVDRip.avi
Format : AVI
Format/Info : Audio Video Interleave
Format profile : OpenDML
Format settings : rec
File size : 1.39 GiB
Duration : 2h 13mn
Overall bit rate : 1 496 Kbps

Video
ID : 0
Format : MPEG-4 Visual
Format profile : Advanced Simple@L5
Format settings, BVOP : 2
Format settings, QPel : No
Format settings, GMC : No warppoints
Format settings, Matrix : Default (H.263)
Codec ID : XVID
Codec ID/Hint : XviD
Duration : 2h 13mn
Bit rate : 1 042 Kbps
Width : 720 pixels
Height : 400 pixels
Display aspect ratio : 16:9
Frame rate : 29.970 fps
Color space : YUV
Chroma subsampling : 4:2:0
Bit depth : 8 bits
Scan type : Progressive
Compression mode : Lossy
Bits/(Pixel*Frame) : 0.121
Stream size : 995 MiB (70%)
Writing library : XviD 67

Audio
ID : 1
Format : AC-3
Format/Info : Audio Coding 3
Mode extension : CM (complete main)
Format settings, Endianness : Big
Codec ID : 2000
Duration : 2h 13mn
Bit rate mode : Constant
Bit rate : 448 Kbps
Channel(s) : 6 channels
Channel positions : Front: L C R, Side: L R, LFE
Sampling rate : 48.0 KHz
Compression mode : Lossy
Stream size : 427 MiB (30%)
Alignment : Aligned on interleaves
Interleave, duration : 64 ms (1.92 video frames)
Interleave, preload duration : 384 ms


Screenshots:

George Michael: Live in London (2009)

George Michael: Live in London (2009)

George Michael: Live in London (2009)

George Michael: Live in London (2009)