Ginger & Rosa (2012)

Posted By: NaVi7
Ginger & Rosa (2012)

Ginger & Rosa (2012)
BDRip | AVI / XVID, 1718 Kbps | 720x304 | 1h 29mn | 1.37 GB
English: AC3, 448 Kbps (6 ch)
Genre: Drama

London, 1962. Two teenage girls - Ginger and Rosa – are inseparable; they play truant together, discuss religion, politics and hairstyles, and dream of lives bigger than their mothers' frustrated domesticity. But, as the Cold War meets the sexual revolution, and the threat of nuclear holocaust escalates, the lifelong friendship of the two girls is shattered - by the clash of desire and the determination to survive.

imdb - 3 wins & 5 nominations.

General
Complete name : 5rFF-gandr480p.avi
Format : AVI
Format/Info : Audio Video Interleave
File size : 1.37 GiB
Duration : 1h 29mn
Overall bit rate : 2 175 Kbps
Writing application : VirtualDubMod 1.5.10.2 (build 2540/release)
Writing library : VirtualDubMod build 2540/release

Video
ID : 0
Format : MPEG-4 Visual
Format profile : Advanced Simple@L5
Format settings, BVOP : 2
Format settings, QPel : No
Format settings, GMC : No warppoints
Format settings, Matrix : Default (H.263)
Muxing mode : Packed bitstream
Codec ID : XVID
Codec ID/Hint : XviD
Duration : 1h 29mn
Bit rate : 1 718 Kbps
Width : 720 pixels
Height : 304 pixels
Display aspect ratio : 2.35:1
Frame rate : 23.976 fps
Color space : YUV
Chroma subsampling : 4:2:0
Bit depth : 8 bits
Scan type : Progressive
Compression mode : Lossy
Bits/(Pixel*Frame) : 0.327
Stream size : 1.08 GiB (79%)
Writing library : XviD 64

Audio
ID : 1
Format : AC-3
Format/Info : Audio Coding 3
Mode extension : CM (complete main)
Format settings, Endianness : Big
Codec ID : 2000
Duration : 1h 29mn
Bit rate mode : Constant
Bit rate : 448 Kbps
Channel(s) : 6 channels
Channel positions : Front: L C R, Side: L R, LFE
Sampling rate : 48.0 KHz
Bit depth : 16 bits
Compression mode : Lossy
Stream size : 288 MiB (21%)
Alignment : Split accross interleaves
Interleave, duration : 42 ms (1.00 video frame)
Interleave, preload duration : 500 ms


screenshots:

Ginger & Rosa (2012)

Ginger & Rosa (2012)

Ginger & Rosa (2012)


Welcome to My Blog!

Subscribe to My Newsletter!

No more mirrors!

If you want to download it, but found out that links are dead, just leave a comment or PM me!
Download Links:
Uploaded | Rapidgator
Links to RapidGator and Uploaded are inside the html file. Download the file and open it in your browser.