Tags
Language
Tags

Gloves Off (2017)

Posted By:
SD / WEBRip IMDb
Gloves Off (2017)

Gloves Off (2017)
WEBRip | AVI | 720x304 | XviD@1737 kb/s | English MP3@192 kb/s | 2 channels | 1 h 35 min | 1.29 GB
Genre: Comedy | Drama

This is the story of Doug, a fantastic fighter but not so fantastic businessman, who must save his beloved gym by training a gentle giant for a bare-knuckle fight.



General
Gloves.Off.2018.HDRip.XviD-EVO.avi
Format : AVI
Format/Info : Audio Video Interleave
Format profile : OpenDML
File size : 1.30 GiB
Duration : 1 h 35 min
Overall bit rate : 1 945 kb/s

Video
ID : 0
Format : MPEG-4 Visual
Format profile : Simple@L3
Format settings, BVOP : No
Format settings, QPel : No
Format settings, GMC : No warppoints
Format settings, Matrix : Default (H.263)
Codec ID : XVID
Codec ID/Hint : XviD
Duration : 1 h 35 min
Bit rate : 1 737 kb/s
Width : 720 pixels
Height : 304 pixels
Display aspect ratio : 2.35:1
Frame rate : 23.976 (23976/1000) FPS
Original frame rate : 23.000 FPS
Color space : YUV
Chroma subsampling : 4:2:0
Bit depth : 8 bits
Scan type : Progressive
Compression mode : Lossy
Bits/(Pixel*Frame) : 0.331
Stream size : 1.16 GiB (89%)
Writing library : XviD 1.2.1 (UTC 2008-12-04)

Audio
ID : 1
Format : MPEG Audio
Format version : Version 1
Format profile : Layer 3
Mode : Joint stereo
Mode extension : MS Stereo
Codec ID : 55
Codec ID/Hint : MP3
Duration : 1 h 35 min
Bit rate mode : Constant
Bit rate : 192 kb/s
Channel(s) : 2 channels
Sampling rate : 44.1 kHz
Compression mode : Lossy
Stream size : 131 MiB (10%)
Alignment : Aligned on interleaves
Interleave, duration : 26 ms (0.63 video frame)
Writing library : LAME3.98.2



WEBRip Screenshots

Gloves Off (2017)

Gloves Off (2017)

Gloves Off (2017)


Come Visit My Blog (•‿•)