Tags
Language
Tags

Go Back to China (2019)

Posted By: Tavaz
1080p (FullHD) / BDRip IMDb
Go Back to China (2019)

Go Back to China (2019)
BDRip | MKV | 1920x1080 | English | H264 @ 5760 kbps | AC-3 @ 448 kbps | 1 h 35 min | 4.14 GiB
Subtitles: English
Genre: Drama

When party girl Sasha Li blows through most of her trust fund, she is cut off by her father and forced to go back to China and work for the family toy business.

33fce438696c49e6847400b3700e15be.mkv (4.1 GB)



General
Unique ID : 155321969814724930772565361665035724641 (0x74D9EC5B570F0AEC7FD123A32CE3E761)
Complete name : ./33fce438696c49e6847400b3700e15be.mkv
Format : Matroska
Format version : Version 4 / Version 2
File size : 4.14 GiB
Duration : 1 h 35 min
Overall bit rate : 6 193 kb/s
Movie name : Go.Back.to.China.2019.1080p.BluRay.x264-nikt0
Encoded date : UTC 2020-04-17 22:01:11 / UTC 2020-04-17T05:02:35Z
Writing application : mkvmerge v38.0.0 ('The Silent Type') 64-bit
Writing library : libebml v1.3.9 + libmatroska v1.5.2 / Lavf57.7.2

Video
ID : 1
Format : AVC
Format/Info : Advanced Video Codec
Format profile : High@L4
Format settings : CABAC / 4 Ref Frames
Format settings, CABAC : Yes
Format settings, RefFrames : 4 frames
Codec ID : V_MPEG4/ISO/AVC
Duration : 1 h 35 min
Bit rate : 5 760 kb/s
Width : 1 920 pixels
Height : 1 080 pixels
Display aspect ratio : 16:9
Frame rate mode : Constant
Frame rate : 23.976 (24000/1001) FPS
Color space : YUV
Chroma subsampling : 4:2:0
Bit depth : 8 bits
Scan type : Progressive
Bits/(Pixel*Frame) : 0.116
Stream size : 3.76 GiB (91%)
Writing library : x264 core 155 r2901 7d0ff22
Encoding settings : cabac=1 / ref=4 / deblock=1:-3:-3 / analyse=0x3:0x133 / me=umh / subme=9 / psy=1 / psy_rd=1.10:0.25 / mixed_ref=1 / me_range=32 / chroma_me=1 / trellis=2 / 8x8dct=1 / cqm=0 / deadzone=6,6 / fast_pskip=1 / chroma_qp_offset=-4 / threads=34 / lookahead_threads=3 / sliced_threads=0 / nr=0 / decimate=1 / interlaced=0 / bluray_compat=0 / constrained_intra=0 / bframes=6 / b_pyramid=2 / b_adapt=2 / b_bias=0 / direct=3 / weightb=1 / open_gop=0 / weightp=2 / keyint=240 / keyint_min=24 / scenecut=40 / intra_refresh=0 / rc_lookahead=40 / rc=2pass / mbtree=1 / bitrate=5760 / ratetol=1.0 / qcomp=0.60 / qpmin=0 / qpmax=69 / qpstep=4 / cplxblur=20.0 / qblur=0.5 / vbv_maxrate=20000 / vbv_bufsize=25000 / nal_hrd=none / filler=0 / ip_ratio=1.40 / aq=1:1.00
Default : Yes
Forced : No
Color range : Limited
Color primaries : BT.709
Transfer characteristics : BT.709
Matrix coefficients : BT.709
Statistics Tags Issue : mkvmerge v38.0.0 ('The Silent Type') 64-bit 2020-04-17 22:01:11 / mkvmerge v38.0.0 ('The Silent Type') 64-bit 2020-04-17 22:01:11 / UTC 2020-04-17T05:02:35Z
FromStats_BitRate : 5743124
FromStats_Duration : 01:35:39.109000000
FromStats_FrameCount : 137601
FromStats_StreamSize : 4120052390

Audio
ID : 2
Format : AC-3
Format/Info : Audio Coding 3
Format settings, Endianness : Big
Codec ID : A_AC3
Duration : 1 h 35 min
Bit rate mode : Constant
Bit rate : 448 kb/s
Channel(s) : 6 channels
Channel positions : Front: L C R, Side: L R, LFE
Sampling rate : 48.0 kHz
Frame rate : 31.250 FPS (1536 SPF)
Bit depth : 16 bits
Compression mode : Lossy
Stream size : 307 MiB (7%)
Title : Surround
Language : English
Service kind : Complete Main
Default : Yes
Forced : No
Statistics Tags Issue : mkvmerge v38.0.0 ('The Silent Type') 64-bit 2020-04-17 22:01:11 / mkvmerge v38.0.0 ('The Silent Type') 64-bit 2020-04-17 22:01:11 / UTC 2020-04-17T05:02:35Z
FromStats_BitRate : 448000
FromStats_Duration : 01:35:39.104000000
FromStats_FrameCount : 179347
FromStats_StreamSize : 321389824

Text
ID : 3
Format : UTF-8
Codec ID : S_TEXT/UTF8
Codec ID/Info : UTF-8 Plain Text
Language : English
Default : Yes
Forced : No
Statistics Tags Issue : mkvmerge v38.0.0 ('The Silent Type') 64-bit 2020-04-17 22:01:11 / mkvmerge v38.0.0 ('The Silent Type') 64-bit 2020-04-17 22:01:11 / UTC 2020-04-17T05:02:35Z
FromStats_BitRate : 79
FromStats_Duration : 01:32:29.002000000
FromStats_FrameCount : 1425
FromStats_StreamSize : 55276

Menu
00:00:00.000 : :Chapter 1
00:09:08.423 : :Chapter 2
00:19:18.991 : :Chapter 3
00:29:40.904 : :Chapter 4
00:38:52.580 : :Chapter 5
00:49:46.025 : :Chapter 6
00:59:50.295 : :Chapter 7
01:08:48.708 : :Chapter 8
01:19:43.112 : :Chapter 9
01:30:23.668 : :Chapter 10





Go Back to China (2019)


Go Back to China (2019)


Go Back to China (2019)


Go Back to China (2019)


Go Back to China (2019)