Tags
Language
Tags

Go Back to China (2019)

Posted By:
1080p (FullHD) / WEB-DL IMDb
Go Back to China (2019)

Go Back to China (2019)
HDRip | MKV | 1 h 35 min | 1.32 GB | 720x300 | AVC@1595 kb/s | English AC3@384 kb/s, 6 ch
WEB-DL 1080p | MKV | 1 h 35 min | 3.29 GB | 1920x802 | AVC@4532 kb/s | English AC3@384 kb/s, 6 ch
Subs: English
Genre: Drama

When spoiled rich girl Sasha Li blows through most of her trust fund, she is cut off by her father and forced to go back to China and work for the family toy business.

IMDB - 3 wins & 5 nominations.


General
Go.Back.To.China.2019.HDRip.XviD.AC3-EVO.avi
Format : Matroska
Format version : Version 4 / Version 2
File size : 1.32 GB
Duration : 1 h 35 min
Overall bit rate : 1969 kb/s
Encoded date : UTC 2020-03-06 05:41:46
Writing application : mkvmerge v35.0.0 ('All The Love In The World') 64-bit
Writing library : libebml v1.3.9 + libmatroska v1.5.2

Video
ID : 1
Format : AVC
Format/Info : Advanced Video Codec
Format profile : High@L3
Format settings, CABAC : Yes
Format settings, ReFrames : 4 frames
Codec ID : V_MPEG4/ISO/AVC
Duration : 1 h 35 min
Bit rate : 1595 kb/s
Width : 720 pixels
Height : 300 pixels
Display aspect ratio : 2.40:1
Frame rate mode : Constant
Frame rate : 23.976 (24000/1001) FPS
Color space : YUV
Chroma subsampling : 4:2:0
Bit depth : 8 bits
Scan type : Progressive
Bits/(Pixel*Frame) : 0.308
Stream size : 1.06 GB (80%)
Writing library : x264 core 157 r2935 545de2f
Encoding settings : cabac=1 / ref=1 / deblock=1:-1:-1 / analyse=0x3:0x113 / me=hex / subme=2 / psy=1 / psy_rd=1.00:0.15 / mixed_ref=0 / me_range=16 / chroma_me=1 / trellis=0 / 8x8dct=1 / cqm=0 / deadzone=21,11 / fast_pskip=1 / chroma_qp_offset=0 / threads=9 / lookahead_threads=2 / sliced_threads=0 / nr=0 / decimate=1 / interlaced=0 / bluray_compat=0 / constrained_intra=0 / bframes=3 / b_pyramid=2 / b_adapt=1 / b_bias=0 / direct=1 / weightb=1 / open_gop=0 / weightp=1 / keyint=240 / keyint_min=24 / scenecut=40 / intra_refresh=0 / rc_lookahead=10 / rc=abr / mbtree=1 / bitrate=1595 / ratetol=1.0 / qcomp=0.60 / qpmin=0 / qpmax=69 / qpstep=4 / ip_ratio=1.40 / aq=1:1.00
Default : Yes
Forced : No
Color range : Limited
Color primaries : BT.709
Transfer characteristics : BT.709
Matrix coefficients : BT.709

Audio
ID : 2
Format : AC-3
Format/Info : Audio Coding 3
Mode extension : CM (complete main)
Format settings, Endianness : Big
Codec ID : A_AC3
Duration : 1 h 35 min
Bit rate mode : Constant
Bit rate : 384 kb/s
Channel(s) : 6 channels
Channel positions : Front: L C R, Side: L R, LFE
Sampling rate : 48.0 kHz
Frame rate : 31.250 FPS (1536 spf)
Bit depth : 16 bits
Compression mode : Lossy
Delay relative to video : -41 ms
Stream size : 263 MB (19%)
Language : English
Default : Yes
Forced : No


General
Go.Back.To.China.2019.1080p.WEB-DL.H264.AC3-EVO.mkv
Format : Matroska
Format version : Version 4 / Version 2
File size : 3.29 GB
Duration : 1 h 35 min
Overall bit rate : 4918 kb/s
Encoded date : UTC 2020-03-06 05:20:16
Writing application : mkvmerge v35.0.0 ('All The Love In The World') 64-bit
Writing library : libebml v1.3.9 + libmatroska v1.5.2

Video
ID : 3
Format : AVC
Format/Info : Advanced Video Codec
Format profile : High@L4
Format settings, CABAC : Yes
Format settings, ReFrames : 5 frames
Codec ID : V_MPEG4/ISO/AVC
Duration : 1 h 35 min
Bit rate : 4532 kb/s
Width : 1920 pixels
Height : 802 pixels
Display aspect ratio : 2.40:1
Frame rate mode : Constant
Frame rate : 23.976 FPS
Color space : YUV
Chroma subsampling : 4:2:0
Bit depth : 8 bits
Scan type : Progressive
Bits/(Pixel*Frame) : 0.123
Stream size : 3.03 GB (92%)
Language : English
Default : Yes
Forced : No
Color range : Limited
Color primaries : BT.709
Transfer characteristics : BT.709
Matrix coefficients : BT.709

Audio
ID : 2
Format : AC-3
Format/Info : Audio Coding 3
Mode extension : CM (complete main)
Format settings, Endianness : Big
Codec ID : A_AC3
Duration : 1 h 35 min
Bit rate mode : Constant
Bit rate : 384 kb/s
Channel(s) : 6 channels
Channel positions : Front: L C R, Side: L R, LFE
Sampling rate : 48.0 kHz
Frame rate : 31.250 FPS (1536 spf)
Bit depth : 16 bits
Compression mode : Lossy
Delay relative to video : -42 ms
Stream size : 263 MB (8%)
Language : English
Default : Yes
Forced : No

Text #1
ID : 1
Format : UTF-8
Codec ID : S_TEXT/UTF8
Codec ID/Info : UTF-8 Plain Text
Duration : 1 h 32 min
Bit rate : 99 b/s
Count of elements : 1425
Stream size : 67.6 KiB (0%)
Language : English
Default : Yes
Forced : No

Text #2
ID : 4
Format : UTF-8
Codec ID : S_TEXT/UTF8
Codec ID/Info : UTF-8 Plain Text
Duration : 1 h 14 min
Bit rate : 8 b/s
Count of elements : 136
Stream size : 4.43 KiB (0%)
Language : English
Default : No
Forced : Yes

Menu
00:00:00.000 : en:Chapter 1
00:09:08.423 : en:Chapter 2
00:19:18.991 : en:Chapter 3
00:29:40.904 : en:Chapter 4
00:38:52.579 : en:Chapter 5
00:49:46.024 : en:Chapter 6
00:59:50.294 : en:Chapter 7
01:08:48.707 : en:Chapter 8
01:19:43.111 : en:Chapter 9
01:30:23.667 : en:Chapter 10



HDRip Screenshots

Go Back to China (2019)

Go Back to China (2019)

Go Back to China (2019)


WEB-DL 1080p Screenshots

Go Back to China (2019)

Go Back to China (2019)

Go Back to China (2019)


Come Visit My Blog (•‿•)