Tags
Language
Tags
February 2023
Su Mo Tu We Th Fr Sa
29 30 31 1 2 3 4
5 6 7 8 9 10 11
12 13 14 15 16 17 18
19 20 21 22 23 24 25
26 27 28 1 2 3 4

Good Girls Go to Heaven / Khoroshiye devochki popadayut v rai / Хорошие девочки попадают в рай (2021)

Posted By: Nedulow
1080p (FullHD) / WEB-DL IMDb
Good Girls Go to Heaven / Khoroshiye devochki popadayut v rai / Хорошие девочки попадают в рай  (2021)

Good Girls Go to Heaven / Khoroshiye devochki popadayut v rai / Хорошие девочки попадают в рай (2021)
WEBRip | MKV / AVC@2300 kb/s | 1024x428 | 1h 31mn
Russian (Русский): AC3, 448 kb/s (6 ch) | 1.76 GB
WEB-DL 1080p | MKV / AVC@6000 kb/s | 1920x804 | 1h 31mn
Russian (Русский): AC3, 448 kb/s (6 ch) | 4.12 GB
Genre: Drama, Comedy, Romance

Pasha is a young lad abandoned by his wife and surrounded with people for whom betrayal is nothing new.


General
Unique ID : 242532910230523558977353410098989971268 (0xB67623B1C3F0F33480DCBE51C2B93744)
Complete name : C:\Good.Girls.Go.to.Heaven.2021.WEBRip.mkv
Format : Matroska
Format version : Version 2
File size : 1.76 GiB
Duration : 1 h 31 min
Overall bit rate : 2 745 kb/s
Movie name : Horoshie.devochki.popadayut.v.raj.2021.WEB-DLRip.AVC
Encoded date : UTC 2021-12-02 19:04:52
Writing application : mkvmerge v7.8.0 ('River Man') 32bit built on Apr 3 2015 12:11:22
Writing library : libebml v1.3.1 + libmatroska v1.4.2
Attachments : poster.jpg

Video
ID : 1
Format : AVC
Format/Info : Advanced Video Codec
Format profile : Main@L3
Format settings : CABAC / 4 Ref Frames
Format settings, CABAC : Yes
Format settings, Reference : 4 frames
Codec ID : V_MPEG4/ISO/AVC
Duration : 1 h 31 min
Bit rate : 2 300 kb/s
Width : 1 024 pixels
Height : 428 pixels
Display aspect ratio : 2.40:1
Frame rate mode : Constant
Frame rate : 25.000 FPS
Color space : YUV
Chroma subsampling : 4:2:0
Bit depth : 8 bits
Scan type : Progressive
Bits/(Pixel*Frame) : 0.210
Stream size : 1.43 GiB (82%)
Writing library : x264 core 157
Encoding settings : cabac=1 / ref=4 / deblock=1:0:0 / analyse=0x1:0x131 / me=umh / subme=10 / psy=1 / psy_rd=1.00:0.00 / mixed_ref=1 / me_range=24 / chroma_me=1 / trellis=2 / 8x8dct=0 / cqm=0 / deadzone=21,11 / fast_pskip=1 / chroma_qp_offset=-2 / threads=13 / lookahead_threads=2 / sliced_threads=0 / nr=0 / decimate=1 / interlaced=0 / bluray_compat=0 / constrained_intra=0 / bframes=8 / b_pyramid=2 / b_adapt=2 / b_bias=0 / direct=3 / weightb=1 / open_gop=0 / weightp=2 / keyint=200 / keyint_min=100 / scenecut=40 / intra_refresh=0 / rc_lookahead=60 / rc=2pass / mbtree=1 / bitrate=2300 / ratetol=1.0 / qcomp=0.60 / qpmin=0 / qpmax=69 / qpstep=4 / cplxblur=20.0 / qblur=0.5 / vbv_maxrate=2530 / vbv_bufsize=3450 / nal_hrd=none / filler=0 / ip_ratio=1.40 / aq=1:1.00
Default : Yes
Forced : No

Audio
ID : 2
Format : AC-3
Format/Info : Audio Coding 3
Commercial name : Dolby Digital
Codec ID : A_AC3
Duration : 1 h 31 min
Bit rate mode : Constant
Bit rate : 448 kb/s
Channel(s) : 6 channels
Channel layout : L R C LFE Ls Rs
Sampling rate : 48.0 kHz
Frame rate : 31.250 FPS (1536 SPF)
Bit depth : 16 bits
Compression mode : Lossy
Stream size : 294 MiB (16%)
Language : Russian
Service kind : Complete Main
Default : No
Forced : No






General
Unique ID : 206037282449597173461204115234246867719 (0x9B015652478AF7E59757A64D1CBBBB07)
Complete name : C:\Good.Girls.Go.to.Heaven.2021.WEB-DL.1080p.mkv
Format : Matroska
Format version : Version 2
File size : 4.12 GiB
Duration : 1 h 31 min
Overall bit rate : 6 431 kb/s
Movie name : Horoshie.devochki.popadayut.v.raj.2021.WEB-DL.1080p
Encoded date : UTC 2021-12-02 19:03:38
Writing application : mkvmerge v7.8.0 ('River Man') 32bit built on Apr 3 2015 12:11:22
Writing library : libebml v1.3.1 + libmatroska v1.4.2
Attachments : poster.jpg

Video
ID : 1
Format : AVC
Format/Info : Advanced Video Codec
Format profile : High@L4
Format settings : CABAC / 5 Ref Frames
Format settings, CABAC : Yes
Format settings, Reference : 5 frames
Codec ID : V_MPEG4/ISO/AVC
Duration : 1 h 31 min
Bit rate : 6 000 kb/s
Width : 1 920 pixels
Height : 804 pixels
Display aspect ratio : 2.40:1
Frame rate mode : Constant
Frame rate : 25.000 FPS
Color space : YUV
Chroma subsampling : 4:2:0
Bit depth : 8 bits
Scan type : Progressive
Bits/(Pixel*Frame) : 0.155
Stream size : 3.75 GiB (91%)
Writing library : x264 core 157
Encoding settings : cabac=1 / ref=5 / deblock=1:0:0 / analyse=0x3:0x133 / me=umh / subme=10 / psy=1 / psy_rd=1.00:0.00 / mixed_ref=1 / me_range=24 / chroma_me=1 / trellis=2 / 8x8dct=1 / cqm=0 / deadzone=21,11 / fast_pskip=1 / chroma_qp_offset=-2 / threads=25 / lookahead_threads=4 / sliced_threads=0 / nr=0 / decimate=1 / interlaced=0 / bluray_compat=0 / constrained_intra=0 / bframes=8 / b_pyramid=2 / b_adapt=2 / b_bias=0 / direct=3 / weightb=1 / open_gop=0 / weightp=2 / keyint=200 / keyint_min=100 / scenecut=40 / intra_refresh=0 / rc_lookahead=60 / rc=2pass / mbtree=1 / bitrate=6000 / ratetol=1.0 / qcomp=0.60 / qpmin=0 / qpmax=69 / qpstep=4 / cplxblur=20.0 / qblur=0.5 / vbv_maxrate=6600 / vbv_bufsize=9000 / nal_hrd=none / filler=0 / ip_ratio=1.40 / aq=1:1.00
Default : Yes
Forced : No

Audio
ID : 2
Format : AC-3
Format/Info : Audio Coding 3
Commercial name : Dolby Digital
Codec ID : A_AC3
Duration : 1 h 31 min
Bit rate mode : Constant
Bit rate : 448 kb/s
Channel(s) : 6 channels
Channel layout : L R C LFE Ls Rs
Sampling rate : 48.0 kHz
Frame rate : 31.250 FPS (1536 SPF)
Bit depth : 16 bits
Compression mode : Lossy
Stream size : 294 MiB (7%)
Language : Russian
Service kind : Complete Main
Default : No
Forced : No






Screenshots WEBRip

Good Girls Go to Heaven / Khoroshiye devochki popadayut v rai / Хорошие девочки попадают в рай  (2021)

Good Girls Go to Heaven / Khoroshiye devochki popadayut v rai / Хорошие девочки попадают в рай  (2021)

Good Girls Go to Heaven / Khoroshiye devochki popadayut v rai / Хорошие девочки попадают в рай  (2021)


Screenshots WEB-DL 1080p

Good Girls Go to Heaven / Khoroshiye devochki popadayut v rai / Хорошие девочки попадают в рай  (2021)

Good Girls Go to Heaven / Khoroshiye devochki popadayut v rai / Хорошие девочки попадают в рай  (2021)

Good Girls Go to Heaven / Khoroshiye devochki popadayut v rai / Хорошие девочки попадают в рай  (2021)