ITV - Gordon Ramsay on Cocaine: Series 1 (2017)

Posted By: notbanned
ITV - Gordon Ramsay on Cocaine: Series 1 (2017)

ITV - Gordon Ramsay on Cocaine: Series 1 (2017)
HDTV | 1280x720 | .MP4/AVC @ 2800 Kbps | 2x~45min | 1.87 GiB
Audio: English AAC 160 kbps, 2 channels | Subs: None
Genre: Documentary

This brand new two-part documentary series shows Gordon Ramsay as viewers have never seen him before, stripping away the veneer of cocaine’s glamorous image to expose how behind the powder many Brits consume as part of a night out, lies a trail of criminality, cruelty and death driving its global trade.
Part 1:
In this episode, He travels to South and Central America to witness the illegal process by which cocaine is made, joins British police trying to catch drivers under the influence and sees the arrest of couriers on their way to a major deal.

Part 2:
The conclusion of Gordon Ramsay's investigation into the criminal business behind the global cocaine trade. In the UK, he meets a major dealer brandishing two packets of cocaine worth £70,000 and a recovering addict who has spent an estimated £5million on her habit. In Columbia he joins an elite anti-drugs squad on a high-risk helicopter mission in Columbia, and in Honduras he is witness to the aftermath of a murder


General
Complete name : Gordon.Ramsay.On.Cocaine.Series.1.1of2.720p.mp4
Format : MPEG-4
Format profile : Base Media / Version 2
Codec ID : mp42 (mp42/isom/avc1)
File size : 948 MiB
Duration : 45 min 16 s
Overall bit rate mode : Variable
Overall bit rate : 2 926 kb/s

Video
ID : 1
Format : AVC
Format/Info : Advanced Video Codec
Format profile : High@L4.1
Format settings, CABAC : Yes
Format settings, ReFrames : 4 frames
Codec ID : avc1
Codec ID/Info : Advanced Video Coding
Duration : 45 min 16 s
Bit rate : 2 800 kb/s
Width : 1 280 pixels
Height : 720 pixels
Display aspect ratio : 16:9
Frame rate mode : Variable
Frame rate : 25.000 FPS
Minimum frame rate : 12.500 FPS
Maximum frame rate : 25.000 FPS
Color space : YUV
Chroma subsampling : 4:2:0
Bit depth : 8 bits
Scan type : Progressive
Bits/(Pixel*Frame) : 0.122
Stream size : 894 MiB (94%)
Writing library : x264 core 130 r2273 b3065e6
Encoding settings : cabac=1 / ref=1 / deblock=1:0:0 / analyse=0x3:0x3 / me=dia / subme=1 / psy=1 / psy_rd=1.00:0.00 / mixed_ref=0 / me_range=16 / chroma_me=1 / trellis=0 / 8x8dct=1 / cqm=0 / deadzone=21,11 / fast_pskip=1 / chroma_qp_offset=0 / threads=6 / lookahead_threads=1 / sliced_threads=0 / nr=0 / decimate=1 / interlaced=0 / bluray_compat=0 / constrained_intra=0 / bframes=3 / b_pyramid=2 / b_adapt=1 / b_bias=0 / direct=1 / weightb=1 / open_gop=0 / weightp=1 / keyint=250 / keyint_min=25 / scenecut=40 / intra_refresh=0 / rc_lookahead=0 / rc=abr / mbtree=0 / bitrate=2800 / ratetol=1.0 / qcomp=0.60 / qpmin=0 / qpmax=69 / qpstep=4 / vbv_maxrate=62500 / vbv_bufsize=78125 / nal_hrd=none / ip_ratio=1.40 / pb_ratio=1.30 / aq=1:1.00
Encoded date : UTC 2017-10-27 13:49:03
Tagged date : UTC 2017-10-27 14:29:48
Color range : Limited
Color primaries : BT.709
Transfer characteristics : BT.709
Matrix coefficients : BT.709

Audio
ID : 2
Format : AAC
Format/Info : Advanced Audio Codec
Format profile : LC
Codec ID : 40
Duration : 45 min 16 s
Bit rate mode : Variable
Bit rate : 160 kb/s
Maximum bit rate : 310 kb/s
Channel(s) : 2 channels
Channel positions : Front: L R
Sampling rate : 48.0 kHz
Frame rate : 46.875 FPS (1024 spf)
Compression mode : Lossy
Stream size : 51.8 MiB (5%)
Title : Stereo
Language : English
Encoded date : UTC 2017-10-27 13:49:03
Tagged date : UTC 2017-10-27 14:29:47


Screenshots:

ITV - Gordon Ramsay on Cocaine: Series 1 (2017)

ITV - Gordon Ramsay on Cocaine: Series 1 (2017)

ITV - Gordon Ramsay on Cocaine: Series 1 (2017)

ITV - Gordon Ramsay on Cocaine: Series 1 (2017)