Tags
Language
Tags

Grand Canyon Adventure: River at Risk (2008)

Posted By: Tutorial
Grand Canyon Adventure: River at Risk (2008)

Grand Canyon Adventure: River at Risk (2008)
BRRip | 720 x 400 | .XviD/AVC @ 1596 Kbps | 44 min 37 s | 575 MB
Audio: English MP3 192 Kbps, 2 channels | Subs: None
Genre: Documentary, Adventure

A documentary about a 15-day river-rafting trip on the Colorado River aimed at highlighting water conservation issues.
Director: Greg MacGillivray
Writers: Jack Stephens, Stephen Judson
Stars: Tara Davis, Wade Davis, Flo Di Re

More info: IMDB

General
Complete name : IMAX.Grand.Canyon.Adventure.River.At.Risk.2008.avi
Format : AVI
Format/Info : Audio Video Interleave
File size : 575 MiB
Duration : 44 min 37 s
Overall bit rate : 1 801 kb/s
Movie name : RARBG.COM - IMAX.Grand.Canyon.Adventure.River.At.Risk.2008.BRRip.XviD.MP3-RARBG
Writing application : Lavf56.40.101
Comment : RARBG.COM - IMAX.Grand.Canyon.Adventure.River.At.Risk.2008.BRRip.XviD.MP3-RARBG

Video
ID : 0
Format : MPEG-4 Visual
Format profile : Simple@L5
Format settings, BVOP : No
Format settings, QPel : No
Format settings, GMC : No warppoints
Format settings, Matrix : Default (H.263)
Codec ID : XVID
Codec ID/Hint : XviD
Duration : 44 min 37 s
Bit rate : 1 596 kb/s
Width : 720 pixels
Height : 400 pixels
Display aspect ratio : 16:9
Frame rate : 23.976 (24000/1001) FPS
Color space : YUV
Chroma subsampling : 4:2:0
Bit depth : 8 bits
Scan type : Progressive
Compression mode : Lossy
Bits/(Pixel*Frame) : 0.231
Stream size : 509 MiB (89%)
Title : RARBG.COM - IMAX.Grand.Canyon.Adventure.River.At.Risk.2008.BRRip.XviD.MP3-RARBG
Writing library : Lavc56.60.100

Audio
ID : 1
Format : MPEG Audio
Format version : Version 1
Format profile : Layer 3
Mode : Joint stereo
Codec ID : 55
Codec ID/Hint : MP3
Duration : 44 min 37 s
Bit rate mode : Constant
Bit rate : 192 kb/s
Channel(s) : 2 channels
Sampling rate : 48.0 kHz
Compression mode : Lossy
Stream size : 61.3 MiB (11%)
Alignment : Aligned on interleaves
Interleave, duration : 24 ms (0.58 video frame)
Interleave, preload duration : 24 ms
Title : RARBG.COM - IMAX.Grand.Canyon.Adventure.River.At.Risk.2008.BRRip.XviD.MP3
Writing library : LAME3.99.5
Screenshots

Grand Canyon Adventure: River at Risk (2008)

Grand Canyon Adventure: River at Risk (2008)

Grand Canyon Adventure: River at Risk (2008)

Grand Canyon Adventure: River at Risk (2008)

Grand Canyon Adventure: River at Risk (2008)

Welcome to my blog - daily update!

Grand Canyon Adventure: River at Risk (2008)