Grand Prix: The Killer Years (2011)

Posted By: vivid23
Grand Prix: The Killer Years (2011)

Grand Prix: The Killer Years (2011)
PDTV | 624x352 | AVI/XviD @ 1647 Kbps | 59mn | Audio: English MP3 128 kbps, 2 channels | Subs: None | 760 MB
Genre: Documentary

In the 60s and early 70s it was common for Grand Prix drivers to be killed while racing, often televised for millions to see. Mechanical failure, lethal track design, fire and incompetence snuffed out dozens of young drivers. They had become almost expendable as eager young wannabes queued up at the top teams' gates waiting to take their place.

More info

General
Complete name : C:\Tor\BBC Grand Prix - The Killer Years.avi
Format : AVI
Format/Info : Audio Video Interleave
File size : 760 MiB
Duration : 59mn 25s
Overall bit rate : 1 788 Kbps

Video
ID : 0
Format : MPEG-4 Visual
Format profile : Advanced Simple@L5
Format settings, BVOP : Yes
Format settings, QPel : No
Format settings, GMC : No warppoints
Format settings, Matrix : Default (H.263)
Codec ID : XVID
Codec ID/Hint : XviD
Duration : 59mn 25s
Bit rate : 1 647 Kbps
Width : 624 pixels
Height : 352 pixels
Display aspect ratio : 16:9
Frame rate : 25.000 fps
Color space : YUV
Chroma subsampling : 4:2:0
Bit depth : 8 bits
Scan type : Progressive
Compression mode : Lossy
Bits/(Pixel*Frame) : 0.300
Stream size : 700 MiB (92%)
Writing library : XviD 64

Audio
ID : 1
Format : MPEG Audio
Format version : Version 1
Format profile : Layer 3
Mode : Joint stereo
Mode extension : MS Stereo
Codec ID : 55
Codec ID/Hint : MP3
Duration : 59mn 24s
Bit rate mode : Constant
Bit rate : 128 Kbps
Channel(s) : 2 channels
Sampling rate : 48.0 KHz
Bit depth : 16 bits
Compression mode : Lossy
Stream size : 54.4 MiB (7%)
Alignment : Aligned on interleaves
Interleave, duration : 24 ms (0.60 video frame)


Grand Prix: The Killer Years (2011)

Grand Prix: The Killer Years (2011)


Feel free to contact me when links are dead