Tags
Language
Tags

Grave of the Vampire (1972)

Posted By:
Grave of the Vampire (1972)

Grave of the Vampire (1972)
WEBRip 1080p | MKV | 1920x1040 | AVC@12.4 Mb/s | English AC3@224 kb/s
Subs: English | 2 channels | 1 h 30 min | 8.11 GB
Genre: Horror

Kroft, a legendary vampire, returns from sleep. Kroft attacks a couple in a graveyard, raping the woman. The child born feeds only on blood from his mother's breast.



General
Unique ID : 217769204643829183370313981344842122474 (0xA3D4D2BE7934434898C85F3AC55204EA)
Complete name : J:\Grave.of.the.Vampire.1972.1080p.WEBRip.DD2.0.x264.NTb\Grave.of.the.Vampire.1972.1080p.WEBRip.DD2.0.x264.NTb.mkv
Format : Matroska
Format version : Version 4 / Version 2
File size : 8.12 GiB
Duration : 1 h 30 min
Overall bit rate mode : Variable
Overall bit rate : 12.8 Mb/s
Encoded date : UTC 2016-08-16 06:37:17
Writing application : mkvmerge v9.3.1 ('Mask Machine') 64bit
Writing library : libebml v1.3.4 + libmatroska v1.4.5

Video
ID : 1
Format : AVC
Format/Info : Advanced Video Codec
Format profile : High@L4
Format settings, CABAC : Yes
Format settings, ReFrames : 4 frames
Codec ID : V_MPEG4/ISO/AVC
Duration : 1 h 30 min
Bit rate mode : Variable
Bit rate : 12.4 Mb/s
Maximum bit rate : 15.0 Mb/s
Width : 1 920 pixels
Height : 1 040 pixels
Display aspect ratio : 1.85:1
Frame rate mode : Constant
Frame rate : 23.976 (24000/1001) FPS
Color space : YUV
Chroma subsampling : 4:2:0
Bit depth : 8 bits
Scan type : Progressive
Bits/(Pixel*Frame) : 0.258
Stream size : 7.82 GiB (96%)
Writing library : x264 core 148 r2623 d5b2374
Encoding settings : cabac=1 / ref=4 / deblock=1:-1:-1 / analyse=0x3:0x133 / me=umh / subme=9 / psy=1 / psy_rd=1.00:0.15 / mixed_ref=1 / me_range=24 / chroma_me=1 / trellis=2 / 8x8dct=1 / cqm=0 / deadzone=21,11 / fast_pskip=1 / chroma_qp_offset=-3 / threads=32 / lookahead_threads=5 / sliced_threads=0 / nr=150 / decimate=1 / interlaced=0 / bluray_compat=0 / constrained_intra=0 / bframes=8 / b_pyramid=2 / b_adapt=2 / b_bias=0 / direct=3 / weightb=1 / open_gop=0 / weightp=2 / keyint=120 / keyint_min=61 / scenecut=0 / intra_refresh=0 / rc_lookahead=120 / rc=crf / mbtree=1 / crf=18.0 / qcomp=0.60 / qpmin=0 / qpmax=69 / qpstep=4 / vbv_maxrate=15000 / vbv_bufsize=31250 / crf_max=0.0 / nal_hrd=vbr / filler=0 / ip_ratio=1.40 / aq=3:1.00
Default : Yes
Forced : No
Color range : Limited
Color primaries : BT.709
Transfer characteristics : BT.709
Matrix coefficients : BT.709

Audio
ID : 2
Format : E-AC-3
Format/Info : Enhanced Audio Coding 3
Format settings, Endianness : Big
Codec ID : A_EAC3
Duration : 1 h 30 min
Bit rate mode : Constant
Bit rate : 224 kb/s
Channel(s) : 2 channels
Channel positions : Front: L R
Sampling rate : 48.0 kHz
Frame rate : 187.500 FPS (256 spf)
Compression mode : Lossy
Stream size : 145 MiB (2%)
Language : English
Default : Yes
Forced : No

Text
ID : 3
Format : UTF-8
Codec ID : S_TEXT/UTF8
Codec ID/Info : UTF-8 Plain Text
Language : English
Default : No
Forced : No


WEBRip 1080p Screenshots

Grave of the Vampire (1972)

Grave of the Vampire (1972)

Grave of the Vampire (1972)

Grave of the Vampire (1972)

Grave of the Vampire (1972)


Come Visit My Blog (•‿•)