Tags
Language
Tags

Gravity and Me: The Force That Shapes Our Lives (2017)

Posted By: Tutorial
1080p (FullHD) / WEBRip IMDb
Gravity and Me: The Force That Shapes Our Lives (2017)

Gravity and Me: The Force That Shapes Our Lives (2017)
1080p WEBRip | 1920 x 1080 | .MKV/AVC @ 8923 Kbps | 1 h 26 min | English E-AC-3 224 Kbps, 2 ch | 5.55 GB
720p WEBRip | 1280 x 720 | .MKV/AVC @ 4677 Kbps | 1 h 26 min | English E-AC-3 224 Kbps, 2 ch | 2.98 GB
WEBRip | 720 x 400 | .MP4/AVC @ 1100 Kbps | 1 h 26 min | English AAC 256 Kbps, 2 ch | 847 MB
Genre: Documentary / Subs: English

Professor Jim Al-Khalili investigates the science of gravity, recreating ground-breaking scientific experiments including the moment when Galileo first discovered how to measure gravity.

General
Unique ID : 270342667795027323446398804894938568852 (0xCB621A9A2FB65E73CA84825B18981894)
Complete name : Gravity.and.Me.The.Force.That.Shapes.Our.Lives.2017.mkv
Format : Matroska
Format version : Version 4 / Version 2
File size : 5.55 GiB
Duration : 1 h 26 min
Overall bit rate : 9 149 kb/s
Encoded date : UTC 2019-09-10 04:23:29
Writing application : mkvmerge v36.0.0 ('Is That Jazz?') 64-bit
Writing library : libebml v1.3.9 + libmatroska v1.5.2

Video
ID : 1
Format : AVC
Format/Info : Advanced Video Codec
Format profile : High@L4
Format settings, CABAC : Yes
Format settings, ReFrames : 4 frames
Codec ID : V_MPEG4/ISO/AVC
Duration : 1 h 26 min
Bit rate mode : Constant
Bit rate : 8 923 kb/s
Nominal bit rate : 10 000 kb/s
Width : 1 920 pixels
Height : 1 080 pixels
Display aspect ratio : 16:9
Frame rate mode : Constant
Frame rate : 25.000 FPS
Color space : YUV
Chroma subsampling : 4:2:0
Bit depth : 8 bits
Scan type : Progressive
Bits/(Pixel*Frame) : 0.172
Stream size : 5.42 GiB (98%)
Default : Yes
Forced : No
Color range : Limited
Color primaries : BT.709
Transfer characteristics : BT.709
Matrix coefficients : BT.709

Audio
ID : 2
Format : E-AC-3
Format/Info : Enhanced Audio Coding 3
Format settings, Endianness : Big
Codec ID : A_EAC3
Duration : 1 h 26 min
Bit rate mode : Constant
Bit rate : 224 kb/s
Channel(s) : 2 channels
Channel positions : Front: L R
Sampling rate : 48.0 kHz
Frame rate : 187.500 FPS (256 spf)
Compression mode : Lossy
Stream size : 139 MiB (2%)
Language : English
Service kind : Complete Main
Default : Yes
Forced : No

Text
ID : 3
Format : UTF-8
Codec ID : S_TEXT/UTF8
Codec ID/Info : UTF-8 Plain Text
Duration : 1 h 26 min
Bit rate : 100 b/s
Count of elements : 1675
Stream size : 63.7 KiB (0%)
Title : English [CC](SDH)
Language : English
Default : Yes
Forced : No

General
Unique ID : 287219486490469388548856171795333295355 (0xD8147601C28086996EB2F74D711CACFB)
Complete name : Gravity.and.Me.The.Force.That.Shapes.Our.Lives.2017.720p.mkv
Format : Matroska
Format version : Version 4 / Version 2
File size : 2.98 GiB
Duration : 1 h 26 min
Overall bit rate : 4 903 kb/s
Encoded date : UTC 2019-08-20 05:42:39
Writing application : mkvmerge v25.0.0 ('Prog Noir') 32-bit
Writing library : libebml v1.3.6 + libmatroska v1.4.9

Video
ID : 1
Format : AVC
Format/Info : Advanced Video Codec
Format profile : High@L3.1
Format settings, CABAC : Yes
Format settings, ReFrames : 4 frames
Codec ID : V_MPEG4/ISO/AVC
Duration : 1 h 26 min
Bit rate mode : Constant
Bit rate : 4 677 kb/s
Nominal bit rate : 6 000 kb/s
Width : 1 280 pixels
Height : 720 pixels
Display aspect ratio : 16:9
Frame rate mode : Constant
Frame rate : 25.000 FPS
Color space : YUV
Chroma subsampling : 4:2:0
Bit depth : 8 bits
Scan type : Progressive
Bits/(Pixel*Frame) : 0.203
Stream size : 2.84 GiB (95%)
Default : Yes
Forced : No
Color range : Limited
Color primaries : BT.709
Transfer characteristics : BT.709
Matrix coefficients : BT.709

Audio
ID : 2
Format : E-AC-3
Format/Info : Enhanced Audio Coding 3
Format settings, Endianness : Big
Codec ID : A_EAC3
Duration : 1 h 26 min
Bit rate mode : Constant
Bit rate : 224 kb/s
Channel(s) : 2 channels
Channel positions : Front: L R
Sampling rate : 48.0 kHz
Frame rate : 187.500 FPS (256 spf)
Compression mode : Lossy
Stream size : 139 MiB (5%)
Language : English
Service kind : Complete Main
Default : Yes
Forced : No

Text
ID : 3
Format : UTF-8
Codec ID : S_TEXT/UTF8
Codec ID/Info : UTF-8 Plain Text
Duration : 1 h 26 min
Bit rate : 100 b/s
Count of elements : 1675
Stream size : 63.7 KiB (0%)
Title : English [CC](SDH)
Language : English
Default : Yes
Forced : No

General
Complete name : Gravity.and.Me.The.Force.That.Shapes.Our.Lives.2017.WEBRip.mp4
Format : MPEG-4
Format profile : Base Media
Codec ID : isom (isom/iso2/avc1/mp41)
File size : 847 MiB
Duration : 1 h 26 min
Overall bit rate : 1 362 kb/s
Movie name : RARBG - Gravity.and.Me.The.Force.That.Shapes.Our.Lives.2017.WEBRip.x264-ION10
Encoded date : UTC 2019-09-10 14:54:01
Tagged date : UTC 2019-09-10 14:54:01
Writing application : Lavf58.20.100
Comment : RARBG - Gravity.and.Me.The.Force.That.Shapes.Our.Lives.2017.WEBRip.x264-ION10

Video
ID : 1
Format : AVC
Format/Info : Advanced Video Codec
Format profile : High@L3.1
Format settings, CABAC : Yes
Format settings, ReFrames : 5 frames
Codec ID : avc1
Codec ID/Info : Advanced Video Coding
Duration : 1 h 26 min
Bit rate : 1 100 kb/s
Width : 720 pixels
Height : 400 pixels
Display aspect ratio : 16:9
Frame rate mode : Constant
Frame rate : 25.000 FPS
Color space : YUV
Chroma subsampling : 4:2:0
Bit depth : 8 bits
Scan type : Progressive
Bits/(Pixel*Frame) : 0.153
Stream size : 684 MiB (81%)
Title : RARBG - Gravity.and.Me.The.Force.That.Shapes.Our.Lives.2017.WEBRip.x264-ION10
Writing library : x264 core 152 r2851M ba24899
Encoding settings : cabac=1 / ref=5 / deblock=1:-1:-1 / analyse=0x3:0x113 / me=umh / subme=9 / psy=1 / psy_rd=1.00:0.15 / mixed_ref=1 / me_range=16 / chroma_me=1 / trellis=2 / 8x8dct=1 / cqm=0 / deadzone=21,11 / fast_pskip=1 / chroma_qp_offset=-3 / threads=16 / lookahead_threads=1 / sliced_threads=0 / nr=0 / decimate=1 / interlaced=0 / bluray_compat=0 / constrained_intra=0 / bframes=3 / b_pyramid=2 / b_adapt=2 / b_bias=0 / direct=3 / weightb=1 / open_gop=0 / weightp=2 / keyint=250 / keyint_min=25 / scenecut=40 / intra_refresh=0 / rc_lookahead=50 / rc=2pass / mbtree=1 / bitrate=1100 / ratetol=1.0 / qcomp=0.60 / qpmin=0 / qpmax=69 / qpstep=4 / cplxblur=20.0 / qblur=0.5 / ip_ratio=1.40 / aq=1:1.00
Encoded date : UTC 2019-09-10 14:54:01
Tagged date : UTC 2019-09-10 14:54:01

Audio
ID : 2
Format : AAC
Format/Info : Advanced Audio Codec
Format profile : LC
Codec ID : 40
Duration : 1 h 26 min
Bit rate mode : Constant
Bit rate : 256 kb/s
Channel(s) : 2 channels
Channel positions : Front: L R
Sampling rate : 48.0 kHz
Frame rate : 46.875 FPS (1024 spf)
Compression mode : Lossy
Stream size : 159 MiB (19%)
Title : RARBG - Gravity.and.Me.The.Force.That.Shapes.Our.Lives.2017.WEBRip.x264-ION10
Language : English
Default : Yes
Alternate group : 1
Encoded date : UTC 2019-09-10 14:54:01
Tagged date : UTC 2019-09-10 14:54:01
Screenshots 1080p WEBRip

Gravity and Me: The Force That Shapes Our Lives (2017)

Gravity and Me: The Force That Shapes Our Lives (2017)

Screenshots 720p WEBRip

Gravity and Me: The Force That Shapes Our Lives (2017)

Gravity and Me: The Force That Shapes Our Lives (2017)

Screenshots WEBRip

Gravity and Me: The Force That Shapes Our Lives (2017)

Welcome to my blog - daily update!

Gravity and Me: The Force That Shapes Our Lives (2017)