Tags
Language
Tags

Great White (2021)

Posted By: Tavaz
720p (HD) / BDRip IMDb
Great White (2021)

Great White (2021)
BDRip | MKV | 1280x534 | English | H264 @ 4561 kbps | AC-3 @ 640 kbps | 1 h 30 min | 3.31 GiB
Subtitles: Español, Français, English
Genre: Horror, Thriller

A tourist trip quickly turns into a living nightmare when five passengers on a seaplane become stranded miles away from shore. What follows is a desperate bid for survival as the group tries to make it to land before they either run out of supplies or are taken by the man-eating sharks lurking just beneath the surface.

2fd8635d3558b3afc77eb777f148b768.mkv (3.3 GB)



General
Unique ID : 92565187686736403525938856982016798873 (0x45A3681C021897D38BF469B279F5B099)
Complete name : ./2fd8635d3558b3afc77eb777f148b768.mkv
Format : Matroska
Format version : Version 4 / Version 2
File size : 3.31 GiB
Duration : 1 h 30 min
Overall bit rate : 5 215 kb/s
Encoded date : UTC 2021-09-12 06:43:31
Writing application : mkvmerge v60.0.0 ('Are We Copies?') 64-bit
Writing library : libebml v1.4.2 + libmatroska v1.6.4

Video
ID : 1
Format : AVC
Format/Info : Advanced Video Codec
Format profile : High@L4.1
Format settings : CABAC / 8 Ref Frames
Format settings, CABAC : Yes
Format settings, RefFrames : 8 frames
Codec ID : V_MPEG4/ISO/AVC
Duration : 1 h 30 min
Bit rate : 4 561 kb/s
Width : 1 280 pixels
Height : 534 pixels
Display aspect ratio : 2.40:1
Frame rate mode : Constant
Frame rate : 24.000 FPS
Color space : YUV
Chroma subsampling : 4:2:0
Bit depth : 8 bits
Scan type : Progressive
Bits/(Pixel*Frame) : 0.278
Stream size : 2.90 GiB (87%)
Writing library : x264 core 164 r3065 ae03d92
Encoding settings : cabac=1 / ref=8 / deblock=1:-3:-3 / analyse=0x3:0x133 / me=umh / subme=9 / psy=1 / psy_rd=1.00:0.00 / mixed_ref=1 / me_range=16 / chroma_me=1 / trellis=2 / 8x8dct=1 / cqm=0 / deadzone=21,11 / fast_pskip=1 / chroma_qp_offset=-2 / threads=17 / lookahead_threads=1 / sliced_threads=0 / nr=0 / decimate=1 / interlaced=0 / bluray_compat=0 / constrained_intra=0 / bframes=3 / b_pyramid=2 / b_adapt=2 / b_bias=0 / direct=3 / weightb=1 / open_gop=0 / weightp=2 / keyint=250 / keyint_min=24 / scenecut=40 / intra_refresh=0 / rc_lookahead=60 / rc=crf / mbtree=1 / crf=14.5 / qcomp=0.60 / qpmin=0 / qpmax=69 / qpstep=4 / ip_ratio=1.40 / aq=1:1.00
Default : Yes
Forced : No

Audio
ID : 2
Format : AC-3
Format/Info : Audio Coding 3
Format settings, Endianness : Big
Codec ID : A_AC3
Duration : 1 h 30 min
Bit rate mode : Constant
Bit rate : 640 kb/s
Channel(s) : 6 channels
Channel positions : Front: L C R, Side: L R, LFE
Sampling rate : 48.0 kHz
Frame rate : 31.250 FPS (1536 SPF)
Bit depth : 16 bits
Compression mode : Lossy
Stream size : 416 MiB (12%)
Language : English
Service kind : Complete Main
Default : Yes
Forced : No

Text #1
ID : 3
Format : PGS
Muxing mode : zlib
Codec ID : S_HDMV/PGS
Codec ID/Info : Picture based subtitle format used on BDs/HD-DVDs
Duration : 1 h 30 min
Bit rate : 12.4 kb/s
Count of elements : 1682
Stream size : 8.06 MiB (0%)
Title : English SDH
Language : English
Default : No
Forced : No

Text #2
ID : 4
Format : PGS
Muxing mode : zlib
Codec ID : S_HDMV/PGS
Codec ID/Info : Picture based subtitle format used on BDs/HD-DVDs
Duration : 1 h 17 min
Bit rate : 11.4 kb/s
Count of elements : 1220
Stream size : 6.27 MiB (0%)
Title : French
Language : French
Default : No
Forced : No

Text #3
ID : 5
Format : PGS
Muxing mode : zlib
Codec ID : S_HDMV/PGS
Codec ID/Info : Picture based subtitle format used on BDs/HD-DVDs
Duration : 1 h 17 min
Bit rate : 10.8 kb/s
Count of elements : 1220
Stream size : 5.96 MiB (0%)
Title : Spanish
Language : Spanish
Default : No
Forced : No

Menu
00:00:00.000 : Chapter 01
00:09:59.250 : Chapter 02
00:30:58.958 : Chapter 03
00:40:27.167 : Chapter 04
00:54:41.500 : Chapter 05
01:09:26.917 : Chapter 06
01:22:45.208 : Chapter 07
01:24:33.042 : Chapter 08
01:30:57.000 : Chapter 09





Great White (2021)


Great White (2021)


Great White (2021)


Great White (2021)


Great White (2021)