Tags
Language
Tags

ITV - Great Art Series 4 (2020)

Posted By: Tutorial
1080p (FullHD) / HDTV IMDb
ITV - Great Art Series 4 (2020)

ITV - Great Art Series 4 (2020)
HDTV | 1920 x 1080 | .MKV/AVC @ 5325 Kbps | 5x~49mn | 8.80 GB
Audio: English AAC 132 Kbps, 2 channels | Subs: English
Genre: Documentary

Great Art is introduced by curator and broadcaster Tim Marlow, Director of The London Design Museum and features a host of eminent art experts, providing the perfect guides to history's artistic greats.

Part 1: Van Gogh and Japan
Tim Marlow explores Japanese influences on Van Gogh's art, a country he never visited during his life. The programme examines the tremendous impact that exhibitions of Japanese art in Paris in the middle years of the 19th century had on Van Gogh and his peers, including Monet and Degas. Van Gogh's decision to abandon the city for the south of France in his final years was driven in part by a desire to find an environment closer to Japan, and Asian influences can be clearly seen in the exciting new direction his work took during this period.


Part 2: I, Claude Monet
Tim Marlow reveals the story behind Monet's greatest paintings, exploring the contrast between his good-humoured love of life and his feelings of loneliness and depression. The programme revisits many of the locations where he painted, and reveals how a passion for gardening led to the glories of his famous Giverny garden.


Part 3: Vermeer and Music from the National Gallery
Tim Marlow explores the life and work of Johannes Vermeer, examining what a painting on display at the National Gallery reveals about the artist's relationship with music - a popular theme among his peers in the Dutch art world. He also uncovers the stories behind many of Vermeer's other works, including Girl with a Pearl Earring.


Part 4: Matisse from Tate Modern and MoMA
Tim Marlow goes behind the scenes at Tate Modern's Henri Matisse: The Cut-Outs, one of the most successful exhibitions in the museum's history. Featuring contributions from Tate director Nicholas Serota and MoMA director Glenn D Lowry, as well as curators, historians and people who knew the artist personally.


Part 5: Renoir: Revered and Reviled
Tim Marlow explores the extreme positive and negative reactions to Renoir's changing style, examining some of the 181 paintings held at the Barnes Foundation in Philadelphia. The film reveals how his new direction was an influence on Picasso and Matisse, making it a vital turning point in the development of art between the 19th and 20th centuries.

General
Unique ID : 139550312937753315760648467986181117821 (0x68FC69A301D97DA050B01A923549D77D)
Complete name : ITV.Great.Art.Series.4.1of5.Van.Gogh.mkv
Format : Matroska
Format version : Version 4
File size : 1.89 GiB
Duration : 49 min 40 s
Overall bit rate : 5 459 kb/s
Movie name : Great Art Series 4 [MVGroup]
Encoded date : UTC 2021-04-02 14:21:16
Writing application : mkvmerge v55.0.0 ('Waiting For Space') 64-bit
Writing library : libebml v1.4.2 + libmatroska v1.6.4

Video
ID : 1
Format : AVC
Format/Info : Advanced Video Codec
Format profile : High@L4.1
Format settings : CABAC / 4 Ref Frames
Format settings, CABAC : Yes
Format settings, Reference frames : 4 frames
Codec ID : V_MPEG4/ISO/AVC
Duration : 49 min 40 s
Bit rate : 5 325 kb/s
Width : 1 920 pixels
Height : 1 080 pixels
Display aspect ratio : 16:9
Frame rate mode : Constant
Frame rate : 25.000 FPS
Color space : YUV
Chroma subsampling : 4:2:0
Bit depth : 8 bits
Scan type : Progressive
Bits/(Pixel*Frame) : 0.103
Stream size : 1.85 GiB (98%)
Writing library : x264 core 161 r3027 4121277
Encoding settings : cabac=1 / ref=4 / deblock=1:0:0 / analyse=0x3:0x113 / me=umh / subme=9 / psy=1 / psy_rd=1.00:0.00 / mixed_ref=1 / me_range=32 / chroma_me=1 / trellis=1 / 8x8dct=1 / cqm=0 / deadzone=21,11 / fast_pskip=0 / chroma_qp_offset=-2 / threads=18 / lookahead_threads=2 / sliced_threads=0 / nr=0 / decimate=1 / interlaced=0 / bluray_compat=0 / constrained_intra=0 / bframes=6 / b_pyramid=2 / b_adapt=2 / b_bias=0 / direct=1 / weightb=1 / open_gop=0 / weightp=2 / keyint=250 / keyint_min=25 / scenecut=40 / intra_refresh=0 / rc_lookahead=40 / rc=crf / mbtree=1 / crf=20.0 / qcomp=0.60 / qpmin=0 / qpmax=69 / qpstep=4 / ip_ratio=1.40 / aq=1:1.00
Language : English
Default : Yes
Forced : No
Color range : Limited
Color primaries : BT.709
Transfer characteristics : BT.709
Matrix coefficients : BT.709

Audio
ID : 2
Format : AAC LC
Format/Info : Advanced Audio Codec Low Complexity
Codec ID : A_AAC-2
Duration : 49 min 39 s
Bit rate : 132 kb/s
Channel(s) : 2 channels
Channel layout : L R
Sampling rate : 48.0 kHz
Frame rate : 46.875 FPS (1024 SPF)
Compression mode : Lossy
Stream size : 46.8 MiB (2%)
Language : English
Default : Yes
Forced : No

Text
ID : 3
Format : UTF-8
Codec ID : S_TEXT/UTF8
Codec ID/Info : UTF-8 Plain Text
Duration : 49 min 10 s
Bit rate : 72 b/s
Count of elements : 585
Stream size : 26.0 KiB (0%)
Language : English
Default : No
Forced : No
Screenshots

ITV - Great Art Series 4 (2020)

ITV - Great Art Series 4 (2020)

ITV - Great Art Series 4 (2020)

Welcome to my blog - daily update!

ITV - Great Art Series 4 (2020)