Tags
Language
Tags

ABC - Griff's Great Australian Rail Trip: Series 1 (2019)

Posted By: Tutorial
1080p (FullHD) / HDTV
ABC - Griff's Great Australian Rail Trip: Series 1 (2019)

ABC - Griff's Great Australian Rail Trip: Series 1 (2019)
HDTV | 1920 x 1080 | .MP4/AVC @ 4543 Kbps | 5x~47mn | 7.69 GB
Audio: English AAC 160 Kbps, 2 channels | Subs: English
Genre: Documentary

British comedian Griff Rhys Jones will explore Australia via its network of railways in a new travel series, Rhys Jones will travel through the country, discovering the origins of the railroads, the stories of the people who operate them and the communities that rely on them.

Part 1: Perth to Kalgoorlie: Find a Sandgroper
The first of two parts aboard the legendary Indian Pacific, Griff journeys from Perth to Kalgoorlie, exploring the state's riches, and perhaps most curiously investigates what is a sandgroper?


Part 2: Rawalinna to Sydney: What is an Australian?
Continuing his journey on the Indian Pacific, Griff traverses three states, alighting in Adelaide, Broken Hill and finally Sydney to discover the unique and diverse definitions of what makes Australia.


Part 3: Brisbane to Cairns: Try not Die
Journeying from Brisbane to Cairns aboard the Spirit of Queensland, Griff tries to dodge all the things trying to kill him in the country's deep north: from jellyfish to dingoes to whitewater rapids.


Part 4: Gold Coast to the Outback: Live the Aussie Dream
On the Spirit of the Outback, travelling to Queensland's west, Griff uncovers what makes 'the good life': from the glitz and glamour of the Gold Coast to dreams of the Australian Outback revered by swagmen across history.


Part 5: Darwin to Alice Springs: Make Sure You Drink Water!
Griff Rhys Jones tumbles into the humid tropics of Darwin in an historic bi-plane before riding the iconic Ghan North to South and arriving in Australia's dry red centre.

General
Complete name : Griffs.Great.Australian.Rail.Trip.Series.1.Part.1.Perth.to.Kalgoorlie..mp4
Format : MPEG-4
Format profile : Base Media
Codec ID : isom (isom)
File size : 1.55 GiB
Duration : 47 min 11 s
Overall bit rate mode : Variable
Overall bit rate : 4 706 kb/s
Encoded date : UTC 2020-02-19 21:48:02
Tagged date : UTC 2020-02-19 21:48:02

Video
ID : 1
Format : AVC
Format/Info : Advanced Video Codec
Format profile : High@L4.1
Format settings, CABAC : No
Format settings, ReFrames : 2 frames
Format settings, GOP : M=1, N=12
Codec ID : avc1
Codec ID/Info : Advanced Video Coding
Duration : 47 min 11 s
Bit rate : 4 543 kb/s
Maximum bit rate : 19.6 Mb/s
Width : 1 920 pixels
Height : 1 080 pixels
Display aspect ratio : 16:9
Frame rate mode : Constant
Frame rate : 25.000 FPS
Color space : YUV
Chroma subsampling : 4:2:0
Bit depth : 8 bits
Scan type : Progressive
Bits/(Pixel*Frame) : 0.088
Stream size : 1.50 GiB (97%)
Title : Griffs.Great.Australian.Rail.Trip.Series.1.Part.1.Perth.to.Kalgoorlie.1080p.HDTV.x264.AAC..org.mp4
Encoded date : UTC 2020-02-19 13:09:56
Tagged date : UTC 2020-02-19 21:50:00

Audio
ID : 2
Format : AAC
Format/Info : Advanced Audio Codec
Format profile : LC
Codec ID : 40
Duration : 47 min 10 s
Bit rate mode : Variable
Bit rate : 160 kb/s
Maximum bit rate : 213 kb/s
Channel(s) : 2 channels
Channel positions : Front: L R
Sampling rate : 48.0 kHz
Frame rate : 46.875 FPS (1024 spf)
Compression mode : Lossy
Stream size : 54.0 MiB (3%)
Title : Griffs.Great.Australian.Rail.Trip.Series.1.Part.1.Perth.to.Kalgoorlie.1080p.HDTV.x264.AAC..org.mp4
Language : English
Encoded date : UTC 2020-02-19 21:49:53
Tagged date : UTC 2020-02-19 21:50:00

Text
ID : 3
Format : Timed Text
Codec ID : tx3g
Duration : 46 min 47 s
Bit rate mode : Variable
Bit rate : 99 b/s
Stream size : 33.9 KiB (0%)
Title : Griffs.Great.Australian.Rail.Trip.Series.1.Part.1.Perth.to.Kalgoorlie.1080p.HDTV.x264.AAC..org.srt
Forced : No
Encoded date : UTC 2020-02-19 21:50:00
Tagged date : UTC 2020-02-19 21:50:00
Screenshots

ABC - Griff's Great Australian Rail Trip: Series 1 (2019)

ABC - Griff's Great Australian Rail Trip: Series 1 (2019)

ABC - Griff's Great Australian Rail Trip: Series 1 (2019)

ABC - Griff's Great Australian Rail Trip: Series 1 (2019)

Welcome to my blog - daily update!

ABC - Griff's Great Australian Rail Trip: Series 1 (2019)