Gypsy Blood (2012) (Repost)

Posted By: ParRus
Gypsy Blood (2012) (Repost)

Gypsy Blood (2012)
DVDRip | English | AVI | 720 x 400 | XviD ~2332 Kbps | 25 fps
AC-3 | 448 kbps | 48.0 KHz | 2 channels | 01:11:57 | 1.4 GB
Genre: Documentary

The legacy of violence handed down through generations of gypsy fathers to their sons.
Director: Leo Maguire
Country: UK
IMDB info

General
Complete name : Gypsy Blood 2012 DVDRip.avi
Format : AVI
Format/Info : Audio Video Interleave
File size : 1.40 GiB
Duration : 1h 11mn
Overall bit rate : 2 788 Kbps
Video #0
ID : 0
Format : MPEG-4 Visual
Format profile : Advanced Simple@L5
Format settings, BVOP : 2
Format settings, QPel : No
Format settings, GMC : No warppoints
Format settings, Matrix : Default (H.263)
Codec ID : XVID
Codec ID/Hint : XviD
Duration : 1h 11mn
Bit rate : 2 332 Kbps
Width : 720 pixels
Height : 400 pixels
Display aspect ratio : 16:9
Frame rate : 25.000 fps
Color space : YUV
Chroma subsampling : 4:2:0
Bit depth : 8 bits
Scan type : Progressive
Compression mode : Lossy
Bits/(Pixel*Frame) : 0.324
Stream size : 1.17 GiB (84%)
Writing library : XviD 1.2.1 (UTC 2008-12-04)
Audio #1
ID : 1
Format : AC-3
Format/Info : Audio Coding 3
Mode extension : CM (complete main)
Codec ID : 2000
Duration : 1h 11mn
Bit rate mode : Constant
Bit rate : 448 Kbps
Channel(s) : 2 channels
Channel positions : Front: L R
Sampling rate : 48.0 KHz
Bit depth : 16 bits
Compression mode : Lossy
Stream size : 231 MiB (16%)
Alignment : Aligned on interleaves
Interleave, duration : 64 ms (1.60 video frames)
Interleave, preload duration : 192 ms
Title : VTS_01_1 T80 2_0ch 192Kbps DELAY 0ms_new

Gypsy Blood (2012) (Repost)

Gypsy Blood (2012) (Repost)

Gypsy Blood (2012) (Repost)

Gypsy Blood (2012) (Repost)

For more, Visit my AH-blog

no mirrors please, Follow The Rules