HBO - 41 (2012)

Posted By: Polik88
HBO - 41 (2012)

HBO - 41 (2012)
DVDRip | English | AVI/XVID 29.970 fps 1718 Kbps | 640x352 | MP3 128 Kbps 48.0 khz | 2x52mn | 2x698 MB
Genre: Documentary

The first documentary to tell George Herbert Walker Bush’s story in his own words, the exclusive HBO® presentation 41 is a rare, intimate glimpse at the life and times of the 41st president of the United States. Featuring unprecedented access to Bush as he reflects on the highs and lows of his life from his beloved summer home in Kennebunkport, Maine to the presidential library in Texas. One of the most experienced politicians ever to achieve the presidency, George H.W. Bush shares anecdotes from his childhood, family, service in World War II and political career.
General
Complete name : 41-cd1.avi
Format : AVI
Format/Info : Audio Video Interleave
File size : 698 MiB
Duration : 52mn 32s
Overall bit rate : 1 858 Kbps
Writing library : VirtualDub build 33848/release
segm : 

Video
ID : 0
Format : MPEG-4 Visual
Format profile : Advanced Simple@L4
Format settings, BVOP : 2
Format settings, QPel : No
Format settings, GMC : No warppoints
Format settings, Matrix : Default (MPEG)
Codec ID : XVID
Codec ID/Hint : XviD
Duration : 52mn 32s
Bit rate : 1 718 Kbps
Width : 640 pixels
Height : 352 pixels
Display aspect ratio : 16:9
Frame rate : 29.970 fps
Color space : YUV
Chroma subsampling : 4:2:0
Bit depth : 8 bits
Scan type : Progressive
Compression mode : Lossy
Bits/(Pixel*Frame) : 0.255
Stream size : 646 MiB (92%)
Writing library : XviD 64

Audio
ID : 1
Format : MPEG Audio
Format version : Version 1
Format profile : Layer 3
Codec ID : 55
Codec ID/Hint : MP3
Duration : 52mn 32s
Bit rate mode : Constant
Bit rate : 128 Kbps
Channel(s) : 2 channels
Sampling rate : 48.0 KHz
Compression mode : Lossy
Stream size : 48.1 MiB (7%)
Alignment : Split accross interleaves
Interleave, duration : 33 ms (1.00 video frame)
Interleave, preload duration : 1000 ms
Writing library : LAME3.95
Encoding settings : -m s -V 4 -q 3 -lowpass 17.5 -b 128

Screenshots

HBO - 41 (2012)

HBO - 41 (2012)

HBO - 41 (2012)

no mirrors please, Follow The Rules
Visit Polik88 Blog Here
no password