HBO - Protocols of Zion (2005)

Posted By: Polik88
HBO - Protocols of Zion (2005)

HBO - Protocols of Zion (2005)
HDTV | English | MKV (H264) 29.970 fps 2677 Kbps | 1280x720 | AC3 192 Kbps 48.0 khz | 1h 32mn | 1.88 GB
Genre: Documentary

Near the dawn of the 20th century, underlings of Czar Nicholas II created a book called The Protocols of the Elders of Zion, which purported to be the outline of a master plan created by powerful Jews determined to rule the world. First published in 1903, the essay was a hoax (and was revealed as such for the first time in 1921 by the London Times), but that hasn't prevented it from having a long and troubling life as a widely distributed cornerstone of anti-Semitic hate literature; it's still in print around the world, and was adapted for Egyptian television in the new millennium. When filmmaker Marc Levin was confronted with another widely disseminated bit of anti-Jewish propaganda (the false assertion that no Jews died in the World Trade Center attacks of September 11, 2001), he developed a new curiosity about the Protocols and other "factual" sources of anti-Semitic hatred, and set out to find out more about anti-Jewish propaganda.
General
Complete name : HBO.Protocols.of.Zion.mkv
Format : Matroska
Format version : Version 2
File size : 1.88 GiB
Duration : 1h 32mn
Overall bit rate : 2 927 Kbps
Encoded date : UTC 2013-01-21 02:19:27
Writing application : mkvmerge v5.8.0 ('No Sleep / Pillow') built on Sep 2 2012 15:37:04
Writing library : libebml v1.2.3 + libmatroska v1.3.0

Video
ID : 1
Format : AVC
Format/Info : Advanced Video Codec
Format profile : High@L4.1
Format settings, CABAC : Yes
Format settings, ReFrames : 8 frames
Muxing mode : Header stripping
Codec ID : V_MPEG4/ISO/AVC
Duration : 1h 32mn
Bit rate : 2 677 Kbps
Width : 1 280 pixels
Height : 720 pixels
Display aspect ratio : 16:9
Frame rate : 29.970 fps
Color space : YUV
Chroma subsampling : 4:2:0
Bit depth : 8 bits
Scan type : Progressive
Bits/(Pixel*Frame) : 0.097
Stream size : 1.72 GiB (91%)
Writing library : x264 core 129 r2230 1cffe9f
Encoding settings : cabac=1 / ref=8 / deblock=1:-1:-1 / analyse=0x3:0x113 / me=esa / subme=8 / psy=1 / psy_rd=1.00:0.00 / mixed_ref=0 / me_range=30 / chroma_me=1 / trellis=2 / 8x8dct=1 / cqm=0 / deadzone=21,11 / fast_pskip=0 / chroma_qp_offset=-2 / threads=6 / lookahead_threads=1 / sliced_threads=0 / nr=0 / decimate=1 / interlaced=0 / bluray_compat=0 / constrained_intra=0 / bframes=5 / b_pyramid=0 / b_adapt=2 / b_bias=0 / direct=1 / weightb=1 / open_gop=0 / weightp=2 / keyint=300 / keyint_min=29 / scenecut=40 / intra_refresh=0 / rc_lookahead=40 / rc=crf / mbtree=1 / crf=20.0 / qcomp=0.60 / qpmin=10 / qpmax=51 / qpstep=4 / ip_ratio=1.40 / aq=1:1.05
Language : English
Default : Yes
Forced : No

Audio
ID : 2
Format : AC-3
Format/Info : Audio Coding 3
Mode extension : CM (complete main)
Format settings, Endianness : Big
Muxing mode : Header stripping
Codec ID : A_AC3
Duration : 1h 32mn
Bit rate mode : Constant
Bit rate : 192 Kbps
Channel(s) : 2 channels
Channel positions : Front: L R
Sampling rate : 48.0 KHz
Bit depth : 16 bits
Compression mode : Lossy
Stream size : 127 MiB (7%)
Default : Yes
Forced : No

Screenshots

HBO - Protocols of Zion (2005)

HBO - Protocols of Zion (2005)

HBO - Protocols of Zion (2005)

no mirrors please, Follow The Rules
Visit Polik88 Blog Here
no password