HDScape: HDWindow - Visions of the Sea - Explorations / HD Scape: Морские Виды (2006)

Posted By: RSU75
HDScape: HDWindow - Visions of the Sea - Explorations / HD Scape: Морские Виды (2006)

HDScape: HDWindow - Visions of the Sea - Explorations / HD Scape: Морские Виды (2006)
BDRip | MKV | AVC 1280x720, ~3.2 Mbps | 1hr 00mn | 1.72 GB
Music in the style of polonaise: AC3, 6 ch, 448 kbps; Relaxation Music: AC3, 2 ch, 448 kbps
Subtitles: None
Genre: Documentary | Music | Relax


Visions of the Sea: Explorations was captured in High Definition by Emmy Award winner Anthony S. Lenzo, one of the world's foremost underwater videographers, and the developer of innovative underwater housings that allow him to take the audience to locations previously inaccessible to video cameras. Explore some of the world's most pristine and unspoiled coral reefs with an underwater tour of Fiji, Bonaire, Honduras and The Bahamas. Experience ocean life as never before in spectacular High Definition video that brings your home entertainment system to life. Visions of the Sea: Explorations features Dolby TrueHD audio.




General
Unique ID : 221199721164120716504224579914048773556 (0xA66984445AC84B508601F2167CF09DB4)
Complete name : L:\HDScape.VisionsOfSea.06.7p\HDScape.VisionsOfSea.06.7p.mkv
Format : Matroska
Format version : Version 4 / Version 2
File size : 1.72 GiB
Duration : 1 h 0 min
Overall bit rate : 4 073 kb/s
Movie name : Release RSU75
Encoded date : UTC 2017-09-01 03:36:27
Writing application : mkvmerge v6.6.0 ('The Edge Of The In Between') built on Dec 1 2013 17:55:00
Writing library : libebml v1.3.0 + libmatroska v1.4.1

Video
ID : 1
Format : AVC
Format/Info : Advanced Video Codec
Format profile : High@L3.1
Format settings, CABAC : Yes
Format settings, ReFrames : 4 frames
Codec ID : V_MPEG4/ISO/AVC
Duration : 1 h 0 min
Bit rate : 3 200 kb/s
Width : 1 280 pixels
Height : 720 pixels
Display aspect ratio : 16:9
Frame rate mode : Constant
Frame rate : 25.000 FPS
Color space : YUV
Chroma subsampling : 4:2:0
Bit depth : 8 bits
Scan type : Progressive
Bits/(Pixel*Frame) : 0.139
Stream size : 1.30 GiB (76%)
Writing library : x264 core 144 r2533 c8a773e
Encoding settings : cabac=1 / ref=4 / deblock=1:0:0 / analyse=0x3:0x113 / me=umh / subme=8 / psy=1 / psy_rd=1.00:0.00 / mixed_ref=1 / me_range=24 / chroma_me=1 / trellis=1 / 8x8dct=1 / cqm=0 / deadzone=21,11 / fast_pskip=1 / chroma_qp_offset=-2 / threads=3 / lookahead_threads=1 / sliced_threads=0 / nr=0 / decimate=1 / interlaced=0 / bluray_compat=0 / constrained_intra=0 / bframes=3 / b_pyramid=0 / b_adapt=2 / b_bias=0 / direct=3 / weightb=1 / open_gop=0 / weightp=2 / keyint=250 / keyint_min=25 / scenecut=40 / intra_refresh=0 / rc_lookahead=40 / rc=abr / mbtree=1 / bitrate=3200 / ratetol=1.0 / qcomp=0.60 / qpmin=10 / qpmax=51 / qpstep=4 / ip_ratio=1.41 / aq=1:1.00
Language : English
Default : Yes
Forced : No

Audio #1
ID : 2
Format : AC-3
Format/Info : Audio Coding 3
Mode extension : CM (complete main)
Format settings, Endianness : Big
Codec ID : A_AC3
Duration : 1 h 0 min
Bit rate mode : Constant
Bit rate : 448 kb/s
Channel(s) : 6 channels
Channel positions : Front: L C R, Side: L R, LFE
Sampling rate : 48.0 kHz
Frame rate : 31.250 FPS (1536 spf)
Bit depth : 16 bits
Compression mode : Lossy
Delay relative to video : -40 ms
Stream size : 193 MiB (11%)
Title : Music in the style of polonaise
Language : English
Default : Yes
Forced : No

Audio #2
ID : 3
Format : AC-3
Format/Info : Audio Coding 3
Mode extension : CM (complete main)
Format settings, Endianness : Big
Codec ID : A_AC3
Duration : 1 h 0 min
Bit rate mode : Constant
Bit rate : 448 kb/s
Channel(s) : 2 channels
Channel positions : Front: L R
Sampling rate : 48.0 kHz
Frame rate : 31.250 FPS (1536 spf)
Bit depth : 16 bits
Compression mode : Lossy
Delay relative to video : -40 ms
Stream size : 193 MiB (11%)
Title : Relaxation Music
Language : English
Default : No
Forced : No




Screenshots (click to enlarge to original size):

HDScape: HDWindow - Visions of the Sea - Explorations / HD Scape: Морские Виды (2006)

HDScape: HDWindow - Visions of the Sea - Explorations / HD Scape: Морские Виды (2006)

HDScape: HDWindow - Visions of the Sea - Explorations / HD Scape: Морские Виды (2006)


HDScape: HDWindow - Visions of the Sea - Explorations / HD Scape: Морские Виды (2006)




–––––––––––––––––––––––––––––––––––––––-
>>> "Relax" <<< OR >>> "HDScape" <<<
–––––––––––––––––––––––––––––––––––––––-
>>> Visit Blog RSU75 Here <<<
–––––––––––––––––––––––––––––––––––––––-