Tags
Language
Tags

HGTV - Dream Home: Behind the Build (2020)

Posted By: notbanned
720p (HD) / HDTV
HGTV - Dream Home: Behind the Build (2020)

HGTV - Dream Home: Behind the Build (2020)
HDTV | 1280x720 | .MKV/AVC @ 3060 Kbps | 40 min 0 s | 908 MiB
Audio: English AAC 127 kbps, 2 channels | Subs: English
Genre: Documentary

The end result is beautiful, but many wonder 'What goes in to building the beautiful HGTV Dream Home?' In this one-hour special, viewers go behind the curtain to see all the construction, planning and furnishing processes for this year's HGTV Dream Home. It's sure to be an insightful hour, detailing the six-month process that ultimately leads to this country's largest sweepstakes.

General
Unique ID : 255693326060705162152502074763655979756 (0xC05CBE4A7BC7217A4C0A7036E80722EC)
Complete name : HGTV.Dream.Home-Behind.the.Build.2020.720p.mkv
Format : Matroska
Format version : Version 4 / Version 2
File size : 908 MiB
Duration : 40 min 0 s
Overall bit rate : 3 174 kb/s

Video
ID : 1
Format : AVC
Format/Info : Advanced Video Codec
Format profile : High@L3.1
Format settings, CABAC : Yes
Format settings, ReFrames : 2 frames
Codec ID : V_MPEG4/ISO/AVC
Duration : 40 min 0 s
Bit rate : 3 060 kb/s
Width : 1 280 pixels
Height : 720 pixels
Display aspect ratio : 16:9
Frame rate mode : Constant
Frame rate : 29.970 (30000/1001) FPS
Color space : YUV
Chroma subsampling : 4:2:0
Bit depth : 8 bits
Scan type : Progressive
Bits/(Pixel*Frame) : 0.111
Stream size : 871 MiB (96%)
Writing library : x264 core 148 r2579M 73ae2d1
Encoding settings : cabac=1 / ref=2 / deblock=1:0:0 / analyse=0x3:0x113 / me=hex / subme=2 / psy=1 / psy_rd=1.00:0.00 / mixed_ref=0 / me_range=16 / chroma_me=1 / trellis=0 / 8x8dct=1 / cqm=0 / deadzone=21,11 / fast_pskip=1 / chroma_qp_offset=0 / threads=4 / lookahead_threads=1 / sliced_threads=0 / nr=250 / decimate=1 / interlaced=0 / bluray_compat=0 / stitchable=1 / constrained_intra=0 / bframes=0 / weightp=1 / keyint=250 / keyint_min=25 / scenecut=40 / intra_refresh=0 / rc_lookahead=10 / rc=2pass / mbtree=1 / bitrate=3060 / ratetol=1.0 / qcomp=0.60 / qpmin=5 / qpmax=69 / qpstep=4 / cplxblur=20.0 / qblur=0.5 / vbv_maxrate=6120 / vbv_bufsize=3060 / nal_hrd=none / filler=0 / ip_ratio=1.40 / aq=1:1.00
Language : English
Default : Yes
Forced : No
Color range : Limited
Color primaries : BT.709
Transfer characteristics : BT.709
Matrix coefficients : BT.709

Audio
ID : 2
Format : AAC
Format/Info : Advanced Audio Codec
Format profile : HE-AAC / LC
Codec ID : A_AAC
Duration : 40 min 0 s
Bit rate : 127 kb/s
Channel(s) : 2 channels
Channel positions : Front: L R
Sampling rate : 48.0 kHz / 24.0 kHz
Frame rate : 23.438 FPS (1024 spf)
Compression mode : Lossy
Delay relative to video : -33 ms
Stream size : 36.3 MiB (4%)
Language : English
Default : Yes
Forced : No

Text
ID : 3
Format : UTF-8
Codec ID : S_TEXT/UTF8
Codec ID/Info : UTF-8 Plain Text
Duration : 39 min 57 s
Bit rate : 115 b/s
Count of elements : 957
Stream size : 33.8 KiB (0%)
Language : English
Default : No
Forced : No


Screenshots:

HGTV - Dream Home: Behind the Build (2020)

HGTV - Dream Home: Behind the Build (2020)

HGTV - Dream Home: Behind the Build (2020)

HGTV - Dream Home: Behind the Build (2020)