Tags
Language
Tags

Hawaii Five-0 S08E08

Posted By: Tavaz
1080p (FullHD) / WEBRip IMDb
Hawaii Five-0 S08E08

Hawaii Five-0 S08E08
WEB-DL | MKV | 1920x1080 | English | H264 @ 10536 kbps | E-AC-3 @ 640 kbps | 43 min 6 s | 3.37 GiB
Genre: Action, Crime, Drama

Steve McGarrett returns home to Oahu, in order to find his father's killer. The governor offers him the chance to run his own task force (Five-0). Steve's team is joined by Chin Ho Kelly, Danny "Danno" Williams, and Kono Kalakaua.

b86696caf5f541f2ae06acddc57a212b.mkv (3.4 GB)



General
Unique ID : 202640555901291158335738082739264653759 (0x987326C5CDF41141973BB681FE5389BF)
Complete name : ./b86696caf5f541f2ae06acddc57a212b.mkv
Format : Matroska
Format version : Version 4 / Version 2
File size : 3.37 GiB
Duration : 43 min 6 s
Overall bit rate mode : Variable
Overall bit rate : 11.2 Mb/s
Encoded date : UTC 2017-12-03 16:36:07
Writing application : mkvmerge v13.0.0 ('The Juggler') 64bit
Writing library : libebml v1.3.4 + libmatroska v1.4.5

Video
ID : 1
Format : AVC
Format/Info : Advanced Video Codec
Format profile : High@L4
Format settings : CABAC / 4 Ref Frames
Format settings, CABAC : Yes
Format settings, RefFrames : 4 frames
Codec ID : V_MPEG4/ISO/AVC
Duration : 43 min 6 s
Bit rate mode : Variable
Bit rate : 10.5 Mb/s
Maximum bit rate : 15.0 Mb/s
Width : 1 920 pixels
Height : 1 080 pixels
Display aspect ratio : 16:9
Frame rate mode : Constant
Frame rate : 23.976 (24000/1001) FPS
Color space : YUV
Chroma subsampling : 4:2:0
Bit depth : 8 bits
Scan type : Progressive
Bits/(Pixel*Frame) : 0.212
Stream size : 3.17 GiB (94%)
Default : Yes
Forced : No
Color range : Limited
Color primaries : BT.709
Transfer characteristics : BT.709
Matrix coefficients : BT.709

Audio
ID : 2
Format : E-AC-3
Format/Info : Enhanced Audio Coding 3
Format settings, Endianness : Big
Codec ID : A_EAC3
Duration : 43 min 6 s
Bit rate mode : Constant
Bit rate : 640 kb/s
Channel(s) : 6 channels
Channel positions : Front: L C R, Side: L R, LFE
Sampling rate : 48.0 kHz
Frame rate : 187.500 FPS (256 SPF)
Compression mode : Lossy
Stream size : 197 MiB (6%)
Service kind : Complete Main
Default : Yes
Forced : No

Text
ID : 3
Format : UTF-8
Codec ID : S_TEXT/UTF8
Codec ID/Info : UTF-8 Plain Text
Duration : 42 min 15 s
Bit rate : 104 b/s
Count of elements : 1022
Stream size : 32.4 KiB (0%)
Title : English [CC]
Default : No
Forced : No





Hawaii Five-0 S08E08


Hawaii Five-0 S08E08


Hawaii Five-0 S08E08


Hawaii Five-0 S08E08


Hawaii Five-0 S08E08

All episodes