Tags
Language
Tags

Helene (2020)

Posted By: RSU75
1080p (FullHD) / BDRip IMDb
Helene (2020)

Helene (2020)
BDRip | MKV | AVC, 1920x804, ~ 3.7 Mbps | 2hr 01mn | 4.06 GB
Finnish (Suomi): DTS, 6 ch, 768 kbps \ AC3, 2 ch, 448 kbps
BDRip | MKV | AVC, 1280x536, ~ 2.5 Mbps | 2hr 01mn | 2.80 MB
Finnish (Suomi): AC3, 6 ch, 448 kbps \ AC3, 2 ch, 448 kbps
Subtitles: Danish, Finnish, Norwegian, Swedish
Genre: Biography, Drama, History



Director: Antti Jokinen
Writers: Antti Jokinen, Marko Leino
Stars: Laura Birn, Johannes Holopainen, Krista Kosonen

Film Distributor: Nordisk Film

A story of renowned Finnish painter Helene Schjerfbeck, and the love affair between her and a younger art critic Einar Reuter.

Extras:
- None




General
Unique ID : 208306966866081919363000439225424284002 (0x9CB676672214E1B3922DE7A3EF900962)
Complete name : F:\Helene.2020.1p\Helene.2020.1p.mkv
Format : Matroska
Format version : Version 4
File size : 4.06 GiB
Duration : 2 h 1 min
Overall bit rate : 4 778 kb/s
Movie name : Release RSU75
Encoded date : UTC 2021-01-06 04:32:05
Writing application : mkvmerge v8.3.0 ('Over the Horizon') 64bit
Writing library : libebml v1.3.1 + libmatroska v1.4.2

Video
ID : 1
Format : AVC
Format/Info : Advanced Video Codec
Format profile : High@L4.1
Format settings : CABAC / 4 Ref Frames
Format settings, CABAC : Yes
Format settings, Reference fra : 4 frames
Codec ID : V_MPEG4/ISO/AVC
Duration : 2 h 1 min
Bit rate : 3 700 kb/s
Width : 1 920 pixels
Height : 804 pixels
Display aspect ratio : 2.40:1
Frame rate mode : Constant
Frame rate : 23.976 (23976/1000) FPS
Color space : YUV
Chroma subsampling : 4:2:0
Bit depth : 8 bits
Scan type : Progressive
Bits/(Pixel*Frame) : 0.100
Stream size : 3.00 GiB (74%)
Writing library : x264 core 148 r2643 5c65704
Encoding settings : cabac=1 / ref=4 / deblock=1:0:0 / analyse=0x3:0x113 / me=umh / subme=8 / psy=1 / psy_rd=1.00:0.00 / mixed_ref=1 / me_range=24 / chroma_me=1 / trellis=1 / 8x8dct=1 / cqm=0 / deadzone=21,11 / fast_pskip=1 / chroma_qp_offset=-2 / threads=3 / lookahead_threads=1 / sliced_threads=0 / nr=0 / decimate=1 / interlaced=0 / bluray_compat=0 / constrained_intra=0 / bframes=3 / b_pyramid=0 / b_adapt=2 / b_bias=0 / direct=3 / weightb=1 / open_gop=0 / weightp=2 / keyint=250 / keyint_min=25 / scenecut=40 / intra_refresh=0 / rc_lookahead=40 / rc=abr / mbtree=1 / bitrate=3700 / ratetol=1.0 / qcomp=0.60 / qpmin=10 / qpmax=51 / qpstep=4 / ip_ratio=1.41 / aq=1:1.00
Language : English
Default : Yes
Forced : No

Audio #1
ID : 2
Format : DTS
Format/Info : Digital Theater Systems
Codec ID : A_DTS
Duration : 2 h 1 min
Bit rate mode : Constant
Bit rate : 768 kb/s
Channel(s) : 6 channels
Channel layout : C L R Ls Rs LFE
Sampling rate : 48.0 kHz
Frame rate : 93.750 FPS (512 SPF)
Bit depth : 24 bits
Compression mode : Lossy
Stream size : 667 MiB (16%)
Title : Surround 5.1
Language : Finnish
Default : Yes
Forced : No

Audio #2
ID : 3
Format : AC-3
Format/Info : Audio Coding 3
Commercial name : Dolby Digital
Codec ID : A_AC3
Duration : 2 h 1 min
Bit rate mode : Constant
Bit rate : 448 kb/s
Channel(s) : 2 channels
Channel layout : L R
Sampling rate : 44.1 kHz
Frame rate : 28.711 FPS (1536 SPF)
Compression mode : Lossy
Stream size : 389 MiB (9%)
Title : Stereo
Language : Finnish
Service kind : Complete Main
Default : No
Forced : No

Text #1
ID : 4
Format : PGS
Muxing mode : zlib
Codec ID : S_HDMV/PGS
Codec ID/Info : Picture based subtitle format used on BDs/HD-DVDs
Duration : 2 h 0 min
Bit rate : 5 768 b/s
Count of elements : 1724
Stream size : 4.98 MiB (0%)
Language : Finnish
Default : No
Forced : No

Text #2
ID : 5
Format : PGS
Muxing mode : zlib
Codec ID : S_HDMV/PGS
Codec ID/Info : Picture based subtitle format used on BDs/HD-DVDs
Duration : 1 h 57 min
Bit rate : 4 485 b/s
Count of elements : 1272
Stream size : 3.76 MiB (0%)
Language : Swedish
Default : No
Forced : No

Text #3
ID : 6
Format : PGS
Muxing mode : zlib
Codec ID : S_HDMV/PGS
Codec ID/Info : Picture based subtitle format used on BDs/HD-DVDs
Duration : 2 h 0 min
Bit rate : 4 313 b/s
Count of elements : 1274
Stream size : 3.72 MiB (0%)
Language : Norwegian
Default : No
Forced : No

Text #4
ID : 7
Format : PGS
Muxing mode : zlib
Codec ID : S_HDMV/PGS
Codec ID/Info : Picture based subtitle format used on BDs/HD-DVDs
Duration : 2 h 0 min
Bit rate : 4 376 b/s
Count of elements : 1274
Stream size : 3.77 MiB (0%)
Language : Danish
Default : No
Forced : No

Menu
00:00:00.000 : en:Chapter 00
00:00:01.876 : en:Chapter 01
00:02:36.114 : en:Chapter 02
00:17:34.344 : en:Chapter 03
00:28:51.438 : en:Chapter 04
00:40:28.342 : en:Chapter 05
00:55:37.459 : en:Chapter 06
01:06:54.844 : en:Chapter 07
01:15:26.313 : en:Chapter 08
01:33:43.492 : en:Chapter 09
01:40:15.217 : en:Chapter 10
01:47:39.995 : en:Chapter 11
01:55:28.671 : en:Chapter 12






General
Unique ID : 215319317810826459264831604865710413710 (0xA1FCFDFF5B6B78F4BB1609A9B827D78E)
Complete name : F:\Helene.2020.7p\Helene.2020.7p.mkv
Format : Matroska
Format version : Version 4
File size : 2.80 GiB
Duration : 2 h 1 min
Overall bit rate : 3 300 kb/s
Movie name : Release RSU75
Encoded date : UTC 2021-01-06 04:39:32
Writing application : mkvmerge v8.3.0 ('Over the Horizon') 64bit
Writing library : libebml v1.3.1 + libmatroska v1.4.2

Video
ID : 1
Format : AVC
Format/Info : Advanced Video Codec
Format profile : High@L4.1
Format settings : CABAC / 4 Ref Frames
Format settings, CABAC : Yes
Format settings, Reference fra : 4 frames
Codec ID : V_MPEG4/ISO/AVC
Duration : 2 h 1 min
Bit rate : 2 500 kb/s
Width : 1 280 pixels
Height : 536 pixels
Display aspect ratio : 2.40:1
Frame rate mode : Constant
Frame rate : 23.976 (23976/1000) FPS
Color space : YUV
Chroma subsampling : 4:2:0
Bit depth : 8 bits
Scan type : Progressive
Bits/(Pixel*Frame) : 0.152
Stream size : 2.02 GiB (72%)
Writing library : x264 core 148 r2643 5c65704
Encoding settings : cabac=1 / ref=4 / deblock=1:0:0 / analyse=0x3:0x113 / me=umh / subme=8 / psy=1 / psy_rd=1.00:0.00 / mixed_ref=1 / me_range=24 / chroma_me=1 / trellis=1 / 8x8dct=1 / cqm=0 / deadzone=21,11 / fast_pskip=1 / chroma_qp_offset=-2 / threads=3 / lookahead_threads=1 / sliced_threads=0 / nr=0 / decimate=1 / interlaced=0 / bluray_compat=0 / constrained_intra=0 / bframes=3 / b_pyramid=0 / b_adapt=2 / b_bias=0 / direct=3 / weightb=1 / open_gop=0 / weightp=2 / keyint=250 / keyint_min=25 / scenecut=40 / intra_refresh=0 / rc_lookahead=40 / rc=abr / mbtree=1 / bitrate=2500 / ratetol=1.0 / qcomp=0.60 / qpmin=10 / qpmax=51 / qpstep=4 / ip_ratio=1.41 / aq=1:1.00
Language : English
Default : Yes
Forced : No

Audio #1
ID : 2
Format : AC-3
Format/Info : Audio Coding 3
Commercial name : Dolby Digital
Codec ID : A_AC3
Duration : 2 h 1 min
Bit rate mode : Constant
Bit rate : 448 kb/s
Channel(s) : 6 channels
Channel layout : L R C LFE Ls Rs
Sampling rate : 48.0 kHz
Frame rate : 31.250 FPS (1536 SPF)
Compression mode : Lossy
Stream size : 389 MiB (14%)
Title : Surround 5.1
Language : Finnish
Service kind : Complete Main
Default : Yes
Forced : No

Audio #2
ID : 3
Format : AC-3
Format/Info : Audio Coding 3
Commercial name : Dolby Digital
Codec ID : A_AC3
Duration : 2 h 1 min
Bit rate mode : Constant
Bit rate : 448 kb/s
Channel(s) : 2 channels
Channel layout : L R
Sampling rate : 44.1 kHz
Frame rate : 28.711 FPS (1536 SPF)
Compression mode : Lossy
Stream size : 389 MiB (14%)
Title : Stereo
Language : Finnish
Service kind : Complete Main
Default : No
Forced : No

Text #1
ID : 4
Format : PGS
Muxing mode : zlib
Codec ID : S_HDMV/PGS
Codec ID/Info : Picture based subtitle format used on BDs/HD-DVDs
Duration : 2 h 0 min
Bit rate : 5 769 b/s
Count of elements : 1724
Stream size : 4.98 MiB (0%)
Language : Finnish
Default : No
Forced : No

Text #2
ID : 5
Format : PGS
Muxing mode : zlib
Codec ID : S_HDMV/PGS
Codec ID/Info : Picture based subtitle format used on BDs/HD-DVDs
Duration : 1 h 57 min
Bit rate : 4 485 b/s
Count of elements : 1272
Stream size : 3.76 MiB (0%)
Language : Swedish
Default : No
Forced : No

Text #3
ID : 6
Format : PGS
Muxing mode : zlib
Codec ID : S_HDMV/PGS
Codec ID/Info : Picture based subtitle format used on BDs/HD-DVDs
Duration : 2 h 0 min
Bit rate : 4 313 b/s
Count of elements : 1274
Stream size : 3.72 MiB (0%)
Language : Norwegian
Default : No
Forced : No

Text #4
ID : 7
Format : PGS
Muxing mode : zlib
Codec ID : S_HDMV/PGS
Codec ID/Info : Picture based subtitle format used on BDs/HD-DVDs
Duration : 2 h 0 min
Bit rate : 4 376 b/s
Count of elements : 1274
Stream size : 3.77 MiB (0%)
Language : Danish
Default : No
Forced : No

Menu
00:00:00.000 : en:Chapter 00
00:00:01.876 : en:Chapter 01
00:02:36.114 : en:Chapter 02
00:17:34.344 : en:Chapter 03
00:28:51.438 : en:Chapter 04
00:40:28.342 : en:Chapter 05
00:55:37.459 : en:Chapter 06
01:06:54.844 : en:Chapter 07
01:15:26.313 : en:Chapter 08
01:33:43.492 : en:Chapter 09
01:40:15.217 : en:Chapter 10
01:47:39.995 : en:Chapter 11
01:55:28.671 : en:Chapter 12




Screenshots 1080p (click to enlarge to original size):

Helene (2020)

Helene (2020)

Helene (2020)



Screenshots 720p (click to enlarge to original size):

Helene (2020)





More in My Blog



If you like this release please visit my blog
In it you will find BDRip releases in different languages