Tags
Language
Tags

Heliopolis - The City of the Sun (2020)

Posted By: notbanned
1080p (FullHD) / HDTV
Heliopolis - The City of the Sun (2020)

Heliopolis - The City of the Sun (2020)
HDTV | 1920x1080 | .MKV/AVC @ 4279 Kbps | 52 min 29 s | 1.64 GiB
Audio: English MP2 192 kbps, 2 channels | Subs: English
Genre: Documentary

Beneath the houses of Cairo lies a much older metropolis. In Heliopolis, as the ancient Greeks called the city, once stood the largest and most important temple of the pharaohs. It was here, the ancient Egyptians believed, that all creation had begun, and it was here where the King was given the power to rule.

Numerous traditions and legends tell of everyday life in the temple city. Even famous scientists like Plato came to study there. For a good 3,000 years, the holy rites were performed in Heliopolis, the temple district was extended again and again. Then the legendary sanctuary fell to ruin and partly disappeared under the new metropolis founded many centuries later.

General
Unique ID : 334534442897106125326269618760713143005 (0xFBACFD7739021A576672C736888E82DD)
Complete name : Heliopolis.The.City.Of.The.Sun.2020.1080p.mkv
Format : Matroska
Format version : Version 4 / Version 2
File size : 1.64 GiB
Duration : 52 min 29 s
Overall bit rate : 4 475 kb/s

Video
ID : 1
Format : AVC
Format/Info : Advanced Video Codec
Format profile : High@L4
Format settings, CABAC : Yes
Format settings, ReFrames : 4 frames
Codec ID : V_MPEG4/ISO/AVC
Duration : 52 min 29 s
Bit rate : 4 279 kb/s
Width : 1 920 pixels
Height : 1 080 pixels
Display aspect ratio : 16:9
Frame rate mode : Variable
Frame rate : 25.000 FPS
Standard : Component
Color space : YUV
Chroma subsampling : 4:2:0
Bit depth : 8 bits
Scan type : MBAFF
Scan type, store method : Separated fields
Scan order : Top Field First
Bits/(Pixel*Frame) : 0.083
Stream size : 1.57 GiB (96%)
Default : Yes
Forced : No
Color range : Limited
Color primaries : BT.709
Transfer characteristics : BT.709
Matrix coefficients : BT.709

Audio
ID : 2
Format : MPEG Audio
Format version : Version 1
Format profile : Layer 2
Codec ID : A_MPEG/L2
Codec ID/Hint : MP2
Duration : 52 min 29 s
Bit rate mode : Constant
Bit rate : 192 kb/s
Channel(s) : 2 channels
Sampling rate : 48.0 kHz
Frame rate : 41.667 FPS (1152 spf)
Compression mode : Lossy
Stream size : 72.1 MiB (4%)
Language : English
Default : Yes
Forced : No

Text
ID : 3
Format : UTF-8
Codec ID : S_TEXT/UTF8
Codec ID/Info : UTF-8 Plain Text
Duration : 52 min 6 s
Bit rate : 69 b/s
Count of elements : 590
Stream size : 26.4 KiB (0%)
Language : English
Default : No
Forced : No


Screenshots:

Heliopolis - The City of the Sun (2020)

Heliopolis - The City of the Sun (2020)

Heliopolis - The City of the Sun (2020)

Heliopolis - The City of the Sun (2020)