Tags
Language
Tags

NG Icons of Power - Henry VIII (2006)

Posted By: Tutorial
720p (HD) / HDTV IMDb
NG Icons of Power - Henry VIII (2006)

NG Icons of Power - Henry VIII (2006)
HDTV | 1280 x 720 | .MKV/AVC @ 4000 Kbps | 1 h 32 min | 2.82 GB
Audio: English AC-3 384 Kbps, 2 channels | Subs: None
Genre: Documentary, History

The program reveals how Henry VIII became engulfed in a cloud of wicked scandal for his six wives, two of whom he divorced by ordered execution. It tells of his decision to spin off the Catholic Church into an Anglican arm, in order to engineer his own church-sanctioned divorce – a path that spun forth century upon century of controversy and whose legacy persists to this day, in Anglicanism and the separation of church and state. To weave its tale, this special relies heavily on historical records, period artwork, and interviews with contemporary historians of the Tudor period.

also You can find my last: History-posts

General
Unique ID : 212479562462440044216207261617372433844 (0x9FDA133FC2E8760F85F7607D2EEE8DB4)
Complete name : National.Geographic.Icons.of.Power.Henry.VIII.mkv
Format : Matroska
Format version : Version 1
File size : 2.82 GiB
Duration : 1 h 32 min
Overall bit rate : 4 388 kb/s
Encoded date : UTC 2010-03-25 01:54:28
Writing application : mkvmerge v2.4.1 ('Use Me') built on Dec 5 2008 18:30:05
Writing library : libebml v0.7.7 + libmatroska v0.8.1

Video
ID : 1
Format : AVC
Format/Info : Advanced Video Codec
Format profile : High@L4.1
Format settings, CABAC : Yes
Format settings, ReFrames : 8 frames
Codec ID : V_MPEG4/ISO/AVC
Duration : 1 h 32 min
Bit rate : 4 000 kb/s
Width : 1 280 pixels
Height : 720 pixels
Display aspect ratio : 16:9
Frame rate mode : Constant
Frame rate : 29.970 (30000/1001) FPS
Color space : YUV
Chroma subsampling : 4:2:0
Bit depth : 8 bits
Scan type : Progressive
Bits/(Pixel*Frame) : 0.145
Stream size : 2.52 GiB (89%)
Writing library : x264 core 75 r1247 b3efbe5
Encoding settings : cabac=1 / ref=8 / deblock=1:-2:-2 / analyse=0x3:0x113 / me=umh / subme=6 / psy=1 / psy_rd=1.0:0.0 / mixed_ref=0 / me_range=30 / chroma_me=1 / trellis=2 / 8x8dct=1 / cqm=2 / deadzone=21,11 / chroma_qp_offset=-2 / threads=6 / nr=0 / decimate=1 / mbaff=0 / bframes=5 / b_pyramid=0 / b_adapt=2 / b_bias=0 / direct=1 / wpredb=1 / keyint=250 / keyint_min=25 / scenecut=40 / rc_lookahead=40 / rc=2pass / mbtree=1 / bitrate=4000 / ratetol=10.0 / qcomp=0.60 / qpmin=10 / qpmax=51 / qpstep=4 / cplxblur=20.0 / qblur=0.5 / ip_ratio=1.40 / aq=1:1.05
Language : English
Default : Yes
Forced : No

Audio
ID : 2
Format : AC-3
Format/Info : Audio Coding 3
Format settings, Endianness : Big
Codec ID : A_AC3
Duration : 1 h 32 min
Bit rate mode : Constant
Bit rate : 384 kb/s
Channel(s) : 2 channels
Channel positions : Front: L R
Sampling rate : 48.0 kHz
Frame rate : 31.250 FPS (1536 spf)
Bit depth : 16 bits
Compression mode : Lossy
Stream size : 253 MiB (9%)
Service kind : Complete Main
Default : Yes
Forced : No
Screenshots

NG Icons of Power - Henry VIII (2006)

NG Icons of Power - Henry VIII (2006)

NG Icons of Power - Henry VIII (2006)

Welcome to my blog - daily update!

NG Icons of Power - Henry VIII (2006)