Hermitage 3D (2011)

Posted By: Polik88
Hermitage 3D (2011)

Hermitage 3D (2011)
BDRip | English | MKV (H264) 23.976 fps 12.0 Mbps | 1920x1080 | DTS 1510 Kbps 48.0 khz | 41mn 49s | 4.03 GB
Genre: Documentary

Museum Secrets is a TV show that travels to famous museums on Earth, to tell the untold stories behind their most enigmatic objects. The series is produced by Kensington Communications Inc. for History. Narrated by acclaimed Canadian Actor Colm Feore, the series goes to 14 of the world's best museums: The Vatican, Louvre, Royal Ontario Museum, Cairo's Egyptian Museum, Natural History Museum in London, The Metropolitan Museum in New York, Hermitage, American Museum of Natural History, National Archaeological Museum of Athens, Imperial War Museum, National Museum of Anthropology Mexico City, Pergamon and Neues Museums in Berlin, Kunsthistorisches Museum in Vienna, and Topkapi Palace Museum in Istanbul.
General
Complete name : HERMITAGE.2011.mkv
Format : Matroska
Format version : Version 2
File size : 4.03 GiB
Duration : 41mn 49s
Overall bit rate : 13.8 Mbps
Movie name : HERMITAGE_3DBluray3DRip
Encoded date : UTC 2012-12-25 18:11:27
Writing application : DVDFab
Writing library : libebml v0.7.8 + libmatroska v0.8.1

Video
ID : 1
Format : AVC
Format/Info : Advanced Video Codec
Format profile : High@L4.1
Format settings, CABAC : Yes
Format settings, ReFrames : 3 frames
Codec ID : V_MPEG4/ISO/AVC
Duration : 41mn 49s
Bit rate : 12.0 Mbps
Width : 1 920 pixels
Height : 1 080 pixels
Display aspect ratio : 16:9
Frame rate : 23.976 fps
Color space : YUV
Chroma subsampling : 4:2:0
Bit depth : 8 bits
Scan type : Progressive
Bits/(Pixel*Frame) : 0.241
Stream size : 3.51 GiB (87%)
Writing library : x264 core
Default : Yes
Forced : No
Color primaries : BT.709-5, BT.1361, IEC 61966-2-4, SMPTE RP177
Transfer characteristics : BT.709-5, BT.1361
Matrix coefficients : BT.709-5, BT.1361, IEC 61966-2-4 709, SMPTE RP177

Audio
ID : 2
Format : DTS
Format/Info : Digital Theater Systems
Codec ID : A_DTS
Duration : 41mn 49s
Bit rate mode : Constant
Bit rate : 1 510 Kbps
Channel(s) : 6 channels
Channel positions : Front: L C R, Side: L R, LFE
Sampling rate : 48.0 KHz
Bit depth : 24 bits
Compression mode : Lossy
Stream size : 452 MiB (11%)
Default : Yes
Forced : No

Screenshots

Hermitage 3D (2011)

Hermitage 3D (2011)

Hermitage 3D (2011)

no mirrors please, Follow The Rules
Visit Polik88 Blog Here
no password