Tags
Language
Tags

History Channel - Heroes of War: Poland (2014)

Posted By: Tutorial
History Channel - Heroes of War: Poland (2014)

History Channel - Heroes of War: Poland (2014)
HDTV | 1280 x 720 | .MP4/AVC @ 3000 Kbps | 5x~45mn | 5.03 GB
Audio: English AAC 160 Kbps, 2 channels | Subs: None
Genre: Documentary, War

Heroes of War Poland 2014 marks the 75th anniversary of the beginning of World War II. This new series takes us back to a time when ordinary people became extraordinary heroes, freedom fighters, spies and code-breakers, often in deadly battles with Nazi forces. Set in Poland, which was home to some of the war's worst atrocities, Heroes of War uncovers tales of heroism and sacrifice from a number of unsung heroes of World War II. Featuring interviews with the few remaining eyewitnesses, access to newly released documents, re-enactment and archive footage, it reveals the true and, until now, hidden stories of heroism during wartime.
Part 1: Witold Pilecki
The series begins with the extraordinary story of Witold Pilecki, the “Auschwitz Volunteer” who stepped into a German roundup one day in order to see for himself the conditions at the new concentration camp outside Warsaw, known to Poles as Oświęcim. He not only survived the experience but after nearly three years escaped to report the facts to London and eventually to write the story in excruciating detail. Executed in 1948 by Poland’s Russian-controlled secret police

Part 2: Cichociemni
The second program tells the story of the Cichociemni, the Special Operations commandos who trained in Scotland and who were parachuted into Poland and other German-occupied countries to support local resistance groups under the control of the London-based Polish government in exile.

Part 3: Cracking Enigma
The third episode takes up the story of how the British broke the “Enigma” encryption machines of the German armed forces using the knowledge gained by Poland in the 1930s. Working for the Cypher Bureau of the Polish General Staff, and using only encrypted messages, mathematician Marian Rejewski and two colleagues reverse-engineered an Enigma machine and built a “cryptologic bomb” to translate messages

Part 4: Zegota
Less known today is Zegota, an underground organization with cells in Warsaw, Krakow, Vilnius, and Lwow that helped thousands of Jews survive the German occupation. Contrary to the well-established belief in Polish anti-Semitism, Poland was the only country in occupied Europe to have such an organization.

Part 5: Krystyna Skarbek
Finally, one of the best spies in WW2 gives us the astonishing story of Krystyna Skarbek, whose father was a Polish aristocrat and her mother a Jewish banking heiress. She and her second husband were en route to Nairobi where he was to assume a diplomatic post when the war broke out. They immediately changed course and sailed from Cape Town to England and once there she immediately displayed her remarkable gift for persuasion by overcoming the obvious objections. She wasn’t British! She was Polish! She was Jewish! And worst of all, she was a woman! Skarbek made her way home to Poland by way of still-neutral Hungary, crossing the mountainous frontier in December 1939 with the help of a Polish Olympic skier. Captured by the Gestapo, she gained her release and that of a comrade by biting her tongue until it bled, then feigning a tubercular cough. Later she worked in France for the Special Operations Executive

also You can look my other last: World War II


General
Complete name : History.Channel.Heroes.Of.War.Poland.1of5.Witold.Pilecki.mp4
Format : MPEG-4
Format profile : Base Media / Version 2
Codec ID : mp42 (mp42/isom/avc1)
File size : 1.00 GiB
Duration : 45 min 56 s
Overall bit rate mode : Variable
Overall bit rate : 3 127 kb/s
Encoded date : UTC 2014-05-29 03:54:10
Tagged date : UTC 2014-05-29 04:49:48
Writing application : HandBrake 0.9.9 2013052900

Video
ID : 1
Format : AVC
Format/Info : Advanced Video Codec
Format profile : High@L4.1
Format settings, CABAC : Yes
Format settings, ReFrames : 4 frames
Codec ID : avc1
Codec ID/Info : Advanced Video Coding
Duration : 45 min 56 s
Bit rate : 3 000 kb/s
Width : 1 280 pixels
Height : 720 pixels
Display aspect ratio : 16:9
Frame rate mode : Constant
Frame rate : 25.000 FPS
Color space : YUV
Chroma subsampling : 4:2:0
Bit depth : 8 bits
Scan type : Progressive
Bits/(Pixel*Frame) : 0.130
Stream size : 973 MiB (95%)
Writing library : x264 core 130 r2273 b3065e6
Encoding settings : cabac=1 / ref=1 / deblock=1:0:0 / analyse=0x3:0x113 / me=hex / subme=2 / psy=1 / psy_rd=1.00:0.00 / mixed_ref=0 / me_range=16 / chroma_me=1 / trellis=0 / 8x8dct=1 / cqm=0 / deadzone=21,11 / fast_pskip=1 / chroma_qp_offset=0 / threads=3 / lookahead_threads=1 / sliced_threads=0 / nr=0 / decimate=1 / interlaced=0 / bluray_compat=0 / constrained_intra=0 / bframes=3 / b_pyramid=2 / b_adapt=1 / b_bias=0 / direct=1 / weightb=1 / open_gop=0 / weightp=1 / keyint=250 / keyint_min=25 / scenecut=40 / intra_refresh=0 / rc_lookahead=10 / rc=abr / mbtree=1 / bitrate=3000 / ratetol=1.0 / qcomp=0.60 / qpmin=0 / qpmax=69 / qpstep=4 / vbv_maxrate=62500 / vbv_bufsize=78125 / nal_hrd=none / ip_ratio=1.40 / aq=1:1.00
Encoded date : UTC 2014-05-29 03:54:10
Tagged date : UTC 2014-05-29 04:49:48
Color range : Limited
Color primaries : BT.709
Transfer characteristics : BT.709
Matrix coefficients : BT.709

Audio
ID : 2
Format : AAC
Format/Info : Advanced Audio Codec
Format profile : LC
Codec ID : 40
Duration : 45 min 56 s
Bit rate mode : Variable
Bit rate : 160 kb/s
Maximum bit rate : 193 kb/s
Channel(s) : 2 channels
Channel positions : Front: L R
Sampling rate : 48.0 kHz
Frame rate : 46.875 FPS (1024 spf)
Compression mode : Lossy
Stream size : 52.6 MiB (5%)
Title : Stereo
Language : English
Encoded date : UTC 2014-05-29 03:54:10
Tagged date : UTC 2014-05-29 04:49:48
Screenshots

History Channel - Heroes of War: Poland (2014)

History Channel - Heroes of War: Poland (2014)

History Channel - Heroes of War: Poland (2014)

Welcome to my blog - daily update!

History Channel - Heroes of War: Poland (2014)