History of the Eagles (2013)

Posted By: ParRus
History of the Eagles (2013)

History of the Eagles (2013)
HDTV-Rip | English | AVI | 640 x 360 | XviD ~991 Kbps | 23.976 fps
MP3 | 128 kbps | 48.0 KHz | 2 channels | 3h 5mn | 1.47 GB
Genre: Documentary

The life and times of the super successful American soft-rock band, Eagles.
Director: Alison Ellwood
Stars: Glenn Frey, Don Henley, Timothy B. Schmit
IMDB info

General
Complete name : History.of.the.Eagles.2013.avi
Format : AVI
Format/Info : Audio Video Interleave
File size : 1.47 GiB
Duration : 3h 5mn
Overall bit rate mode : Variable
Overall bit rate : 1 132 Kbps
Video #0
ID : 0
Format : MPEG-4 Visual
Format profile : Advanced Simple@L5
Format settings, BVOP : 2
Format settings, QPel : No
Format settings, GMC : No warppoints
Format settings, Matrix : Default (H.263)
Codec ID : XVID
Codec ID/Hint : XviD
Duration : 3h 5mn
Bit rate : 991 Kbps
Width : 640 pixels
Height : 360 pixels
Display aspect ratio : 16:9
Frame rate : 23.976 fps
Color space : YUV
Chroma subsampling : 4:2:0
Bit depth : 8 bits
Scan type : Progressive
Compression mode : Lossy
Bits/(Pixel*Frame) : 0.179
Stream size : 1.29 GiB (88%)
Writing library : XviD 64
Audio #1
ID : 1
Format : MPEG Audio
Format version : Version 1
Format profile : Layer 3
Mode : Joint stereo
Mode extension : MS Stereo
Codec ID : 55
Codec ID/Hint : MP3
Duration : 3h 5mn
Bit rate mode : Variable
Bit rate : 128 Kbps
Channel(s) : 2 channels
Sampling rate : 48.0 KHz
Compression mode : Lossy
Stream size : 170 MiB (11%)
Alignment : Aligned on interleaves
Interleave, duration : 24 ms (0.58 video frame)
Interleave, preload duration : 178 ms

ScreenShots

History of the Eagles (2013)

History of the Eagles (2013)

History of the Eagles (2013)

History of the Eagles (2013)

For more, Visit my AH-blog

no mirrors please, Follow The Rules