Hit So Hard (2011)

Posted By: Polik88
Hit So Hard (2011)

Hit So Hard (2011)
DVDRip | English | AVI/XVID 29.970 fps 1546 Kbps | 624x352 | MP3 128 Kbps 48.0 khz | 2x57mn | 2x699 MB
Genre: Documentary

A documentary that follows Hole drummer Patty Schemel as she struggles with fame and addiction.
General
Complete name : hit.so.hard.2011.cd1.avi
Format : AVI
Format/Info : Audio Video Interleave
File size : 700 MiB
Duration : 57mn 53s
Overall bit rate mode : Variable
Overall bit rate : 1 690 Kbps
Writing application : VirtualDubMod 1.5.10.2 (build 2540/release)
Writing library : VirtualDubMod build 2540/release
segm : 

Video
ID : 0
Format : MPEG-4 Visual
Format profile : Advanced Simple@L5
Format settings, BVOP : 2
Format settings, QPel : No
Format settings, GMC : No warppoints
Format settings, Matrix : Default (H.263)
Muxing mode : Packed bitstream
Codec ID : XVID
Codec ID/Hint : XviD
Duration : 57mn 53s
Bit rate : 1 546 Kbps
Width : 624 pixels
Height : 352 pixels
Display aspect ratio : 16:9
Frame rate : 29.970 fps
Color space : YUV
Chroma subsampling : 4:2:0
Bit depth : 8 bits
Scan type : Progressive
Compression mode : Lossy
Bits/(Pixel*Frame) : 0.235
Stream size : 640 MiB (91%)
Writing library : XviD 64

Audio
ID : 1
Format : MPEG Audio
Format version : Version 1
Format profile : Layer 3
Mode : Joint stereo
Mode extension : MS Stereo
Codec ID : 55
Codec ID/Hint : MP3
Duration : 57mn 53s
Bit rate mode : Variable
Bit rate : 128 Kbps
Channel(s) : 2 channels
Sampling rate : 48.0 KHz
Compression mode : Lossy
Delay relative to video : 8ms
Stream size : 53.9 MiB (8%)
Alignment : Aligned on interleaves
Interleave, duration : 24 ms (0.72 video frame)
Interleave, preload duration : 540 ms

Screenshots

Hit So Hard (2011)

Hit So Hard (2011)

Hit So Hard (2011)

no mirrors please, Follow The Rules
Visit Polik88 Blog Here
no password