Hitler's Empire: The Post War Plan (2018)

Posted By: notbanned
720p (HD) / WEBRip
Hitler's Empire: The Post War Plan (2018)

Hitler's Empire: The Post War Plan (2018)
WEBRip | 1280x720 | .MKV/AVC @ 3060 Kbps | 4x~43min | 3.90 GiB
Audio: English AAC 127 kbps, 2 channels | Subs: None
Genre: Documentary

Join Guy Walters, an award-winning journalist and Nazi expert, as he hunts down the fascinating but alarming truth about how the world would have looked had Hitler and his Nazi regime not been defeated. Here, in unsettling detail, is the Nazi Blueprint for the world envisioned by the Third Reich.
1. America
In this episode we'll uncover support for the National Socialist movement within America, revealing outposts of Nazi Germany within the land of the free. We'll also learn about the man thought he believed he was the American Fuhrer.

2. Megacities
In this episode we'll examine how the Nazis began to stamp their image on Germany and the nations that had fallen under the German jackboot. From plans to redesign Berlin as the capital of the world, to the destruction of Warsaw.

3. Recreation
In this episode, we'll see how Hitler used the Olympic games to promote Nazism. How he controlled the leisure time and holidays of his Citizens by developing the world's largest travel agency. And how by constructing the world's biggest beach resort.

4. Hitler's British Head Quarters
In this Episode, Guy looks at the Nazi plans for Britain. From pre-war spying, concentration camps on British soil to national landmarks earmarked by Hitler for his own use use.

General
Unique ID : 91426359844097374821503235645671026130 (0x44C8138FCD85FF9085A8C30CFCFD2DD2)
Complete name : Hitlers.Empire.The.Post.War.Plan.S01E01.America.720p.mkv
Format : Matroska
Format version : Version 4 / Version 2
File size : 1 002 MiB
Duration : 43 min 53 s
Overall bit rate : 3 192 kb/s

Video
ID : 2
Format : AVC
Format/Info : Advanced Video Codec
Format profile : High@L3.1
Format settings, CABAC : Yes
Format settings, ReFrames : 2 frames
Codec ID : V_MPEG4/ISO/AVC
Duration : 43 min 53 s
Bit rate : 3 060 kb/s
Width : 1 280 pixels
Height : 720 pixels
Display aspect ratio : 16:9
Frame rate mode : Constant
Frame rate : 29.970 (30000/1001) FPS
Original frame rate : 30.000 FPS
Color space : YUV
Chroma subsampling : 4:2:0
Bit depth : 8 bits
Scan type : Progressive
Bits/(Pixel*Frame) : 0.111
Stream size : 961 MiB (96%)
Encoding settings : cabac=1 / ref=2 / deblock=1:0:0 / analyse=0x3:0x113 / me=hex / subme=2 / psy=1 / psy_rd=1.00:0.00 / mixed_ref=0 / me_range=16 / chroma_me=1 / trellis=0 / 8x8dct=1 / cqm=0 / deadzone=21,11 / fast_pskip=1 / chroma_qp_offset=0 / threads=4 / lookahead_threads=1 / sliced_threads=0 / nr=250 / decimate=1 / interlaced=0 / bluray_compat=0 / stitchable=1 / constrained_intra=0 / bframes=0 / weightp=1 / keyint=250 / keyint_min=25 / scenecut=40 / intra_refresh=0 / rc_lookahead=10 / rc=2pass / mbtree=1 / bitrate=3060 / ratetol=1.0 / qcomp=0.60 / qpmin=5 / qpmax=69 / qpstep=4 / cplxblur=20.0 / qblur=0.5 / ip_ratio=1.40 / aq=1:1.00
Language : English
Default : Yes
Forced : No

Audio
ID : 1
Format : AAC
Format/Info : Advanced Audio Codec
Format profile : HE-AAC / LC
Codec ID : A_AAC
Duration : 43 min 53 s
Bit rate : 127 kb/s
Channel(s) : 2 channels
Channel positions : Front: L R
Sampling rate : 48.0 kHz / 24.0 kHz
Frame rate : 23.438 FPS (1024 spf)
Compression mode : Lossy
Stream size : 39.8 MiB (4%)
Language : English
Default : Yes
Forced : No


Screenshots:

Hitler's Empire: The Post War Plan (2018)

Hitler's Empire: The Post War Plan (2018)

Hitler's Empire: The Post War Plan (2018)

Hitler's Empire: The Post War Plan (2018)