Tags
Language
Tags
April 2024
Su Mo Tu We Th Fr Sa
31 1 2 3 4 5 6
7 8 9 10 11 12 13
14 15 16 17 18 19 20
21 22 23 24 25 26 27
28 29 30 1 2 3 4

Hitler's Family - In the Shadow of the Dictator (2006)

Posted By: Tutorial
SD / DVDRip
Hitler's Family - In the Shadow of the Dictator (2006)

Hitler's Family - In the Shadow of the Dictator (2006)
PDTV | 704 x 384 | .AVI/XviD @ 1781 Kbps | 52 min 29 s | 744 MB
Audio: English AC-3 192 Kbps, 2 channels | Subs: None
Genre: Documentary, History, War

Adolf Hitler consistently hushed up or denied his family lineage for fear that his ragtag bunch of ancestors and living relatives could tarnish his reputation or expose his imperfect Aryan background. His family had a history of psychiatric disorders, and his second cousin, Aloisia Veit, was locked up in an asylum for nine years before being sent to the gas chambers for being "unworthy of life".

Hitler was embarrassed by his sister Paula, and made her live under the assumed name of Paula Wolf. Paula became engaged to Dr Erwin Jekelius, medical director of the asylum who sent hundreds of mentally ill patients, including Aloisia Veit, to their deaths

General
Complete name : Hitlers.Family.In.the.Shadow.of.the.Dictator.avi
Format : AVI
Format/Info : Audio Video Interleave
File size : 744 MiB
Duration : 52 min 29 s
Overall bit rate : 1 982 kb/s
Writing application : VirtualDubMod 1.5.10.2 (build 2540/release)
Writing library : VirtualDubMod build 2540/release

Video
ID : 0
Format : MPEG-4 Visual
Format profile : Simple@L3
Format settings, BVOP : 2
Format settings, QPel : No
Format settings, GMC : No warppoints
Format settings, Matrix : Default (H.263)
Muxing mode : Packed bitstream
Codec ID : XVID
Codec ID/Hint : XviD
Duration : 52 min 29 s
Bit rate : 1 781 kb/s
Width : 704 pixels
Height : 384 pixels
Display aspect ratio : 1.85:1
Frame rate : 25.000 FPS
Color space : YUV
Chroma subsampling : 4:2:0
Bit depth : 8 bits
Scan type : Progressive
Compression mode : Lossy
Bits/(Pixel*Frame) : 0.263
Stream size : 669 MiB (90%)
Writing library : XviD 1.0.3 (UTC 2004-12-20)

Audio
ID : 1
Format : AC-3
Format/Info : Audio Coding 3
Format settings, Endianness : Big
Codec ID : 2000
Duration : 52 min 29 s
Bit rate mode : Constant
Bit rate : 192 kb/s
Channel(s) : 2 channels
Channel positions : Front: L R
Sampling rate : 48.0 kHz
Frame rate : 31.250 FPS (1536 spf)
Bit depth : 16 bits
Compression mode : Lossy
Stream size : 72.1 MiB (10%)
Alignment : Split accross interleaves
Interleave, duration : 40 ms (1.00 video frame)
Interleave, preload duration : 64 ms
Service kind : Complete Main
Screenshots

Hitler's Family - In the Shadow of the Dictator (2006)

Hitler's Family - In the Shadow of the Dictator (2006)

Hitler's Family - In the Shadow of the Dictator (2006)

Welcome to my blog - daily update!