Tags
Language
Tags

ZDF - Hitlers Secret Weapons Manager (2020)

Posted By: notbanned
1080p (FullHD) / HDTV
ZDF - Hitlers Secret Weapons Manager (2020)

ZDF - Hitlers Secret Weapons Manager (2020)
HDTV | 1920x1080 | .MKV/AVC @ 6587 Kbps | 52 min 11 s | 2.45 GiB
Audio: English MP2 128 kbps, 2 channels | Subs: None
Genre: Documentary

Did the man behind Hitler’s secret weapons program survive the war? Was SS General Hans Kammler covertly brought to the USA to safeguard his knowledge? Allegedly he had committed suicide on 9 May 1945. Yet, recently found documents contradict the official version. Kammler controlled a widespread network of underground production sites vital to the German war effort. But Kammler was not merely in charge of the latest state of the art weapons technology. The former architect and civil engineer was also one of the key figures behind the construction of concentration camps and the systematic employment of their inmates as forced labourers. In the end, he escaped being charged as a war criminal at the Nuremberg trials.

The disappearance and the two lives of Hans Kammler — a story of empty graves and questions that still call for answers.

General
Unique ID : 205349736022527392444770630825899674416 (0x9A7CEBAA547CBDC6F7372B8ECC274B30)
Complete name : Hitlers.Sct.Weapons.Manager.2020.1080p.mkv
Format : Matroska
Format version : Version 4 / Version 2
File size : 2.45 GiB
Duration : 52 min 11 s
Overall bit rate : 6 719 kb/s

Video
ID : 1
Format : AVC
Format/Info : Advanced Video Codec
Format profile : High@L4
Format settings, CABAC : Yes
Format settings, ReFrames : 4 frames
Codec ID : V_MPEG4/ISO/AVC
Duration : 52 min 11 s
Bit rate : 6 587 kb/s
Width : 1 920 pixels
Height : 1 080 pixels
Display aspect ratio : 16:9
Frame rate mode : Variable
Frame rate : 50.000 FPS
Original frame rate : 25.000 FPS
Standard : Component
Color space : YUV
Chroma subsampling : 4:2:0
Bit depth : 8 bits
Scan type : Interlaced
Scan type, store method : Separated fields
Scan order : Top Field First
Bits/(Pixel*Frame) : 0.064
Stream size : 2.40 GiB (98%)
Default : Yes
Forced : No
Color range : Limited
Color primaries : BT.709
Transfer characteristics : BT.709
Matrix coefficients : BT.709

Audio
ID : 2
Format : MPEG Audio
Format version : Version 1
Format profile : Layer 2
Codec ID : A_MPEG/L2
Codec ID/Hint : MP2
Duration : 52 min 11 s
Bit rate mode : Constant
Bit rate : 128 kb/s
Channel(s) : 2 channels
Sampling rate : 48.0 kHz
Frame rate : 41.667 FPS (1152 spf)
Compression mode : Lossy
Stream size : 47.8 MiB (2%)
Language : English
Default : Yes
Forced : No


Screenshots:

ZDF - Hitlers Secret Weapons Manager (2020)

ZDF - Hitlers Secret Weapons Manager (2020)

ZDF - Hitlers Secret Weapons Manager (2020)

ZDF - Hitlers Secret Weapons Manager (2020)