Tags
Language
Tags

National Geographic - Hitlers Secret Attack on America (2012)

Posted By: Tutorial
720p (HD) / HDTV IMDb
National Geographic - Hitlers Secret Attack on America (2012)

National Geographic - Hitlers Secret Attack on America (2012)
HDTV | 1280 x 720 | .MKV/AVC @ 3333 Kbps | 44 min 59 s | 1.19 GB
Audio: English AC-3 384 Kbps, 2 channels | Subs: None
Genre: Documentary

For the first time in history, National Geographic and a group of scientists search the ocean floor for a series of shipwrecks many Americans never heard about. Everyone knows that on December 7, 1941, the Japanese attacked Pearl Harbor. But what most dont know is just days later, Hitler sent his own force to devastate the East Coast. On December 19, the German Naval War Staff sent three U-boats to American waters. It was an assault so deadly, it was covered up by the U.S. government.
December 11, 1941: Hitler declares war against America. For German Admiral Karl Donitz, Commander of the U-boat submarine fleet, the time is at hand. Donitz devises a plan for a surprise attack on the U.S. Atlantic Seaboard, called "Operation Drumbeat". The message to the United States is clear; Hitler is coming… This story, one of the most deadly attacks off America's East Coast, is covered up and remains largely untold and secreted away for over 60 years –until now.
For the first time, the story of these U-boats and their prey is being hunted down, uncovered and filmed by NOAA National Marine Sanctuaries. Using advanced Hi-Def ROV's, side scan sonar, and 3D imaging, this show will piece together the tactics, battles, heroes & villains of, "Operation Drumbeat", one of the most unknown and deadliest attacks on the U.S in history.

General
Unique ID : 209101567946765120498649453465473587085 (0x9D4F7F42C723B5B0BA252CB98C3B178D)
Complete name : NG.Hitlers.Secret.Attack.on.America.mkv
Format : Matroska
Format version : Version 2
File size : 1.19 GiB
Duration : 44 min 59 s
Overall bit rate : 3 792 kb/s
Encoded date : UTC 2012-09-16 09:03:16
Writing application : mkvmerge v5.8.0 ('No Sleep / Pillow') built on Sep 2 2012 15:37:04
Writing library : libebml v1.2.3 + libmatroska v1.3.0

Video
ID : 1
Format : AVC
Format/Info : Advanced Video Codec
Format profile : High@L4.1
Format settings : CABAC / 5 Ref Frames
Format settings, CABAC : Yes
Format settings, RefFrames : 5 frames
Codec ID : V_MPEG4/ISO/AVC
Duration : 44 min 59 s
Bit rate : 3 333 kb/s
Width : 1 280 pixels
Height : 720 pixels
Display aspect ratio : 16:9
Frame rate mode : Constant
Frame rate : 25.000 FPS
Color space : YUV
Chroma subsampling : 4:2:0
Bit depth : 8 bits
Scan type : Progressive
Bits/(Pixel*Frame) : 0.145
Stream size : 1.05 GiB (88%)
Writing library : x264 core 125 r2208kMod d9d2288
Encoding settings : cabac=1 / ref=5 / deblock=1:-1:-1 / analyse=0x3:0x113 / me=umh / subme=8 / psy=1 / fade_compensate=0.00 / psy_rd=1.00:0.15 / mixed_ref=1 / me_range=16 / chroma_me=1 / trellis=1 / 8x8dct=1 / cqm=0 / deadzone=21,11 / fast_pskip=1 / chroma_qp_offset=-3 / threads=6 / lookahead_threads=1 / sliced_threads=0 / nr=0 / decimate=1 / interlaced=0 / bluray_compat=0 / constrained_intra=0 / bframes=3 / b_pyramid=2 / b_adapt=2 / b_bias=0 / direct=3 / weightb=1 / open_gop=0 / weightp=2 / keyint=250 / keyint_min=25 / scenecut=40 / intra_refresh=0 / rc_lookahead=50 / rc=crf / mbtree=1 / crf=20.0000 / qcomp=0.60 / qpmin=0 / qpmax=69 / qpstep=4 / ip_ratio=1.40 / aq=1:1.00
Language : English
Default : Yes
Forced : No

Audio
ID : 2
Format : AC-3
Format/Info : Audio Coding 3
Codec ID : A_AC3
Duration : 44 min 59 s
Bit rate mode : Constant
Bit rate : 384 kb/s
Channel(s) : 2 channels
Channel positions : Front: L R
Sampling rate : 48.0 kHz
Frame rate : 31.250 FPS (1536 SPF)
Bit depth : 16 bits
Compression mode : Lossy
Stream size : 124 MiB (10%)
Language : English
Service kind : Complete Main
Default : Yes
Forced : No
Screenshots

National Geographic - Hitlers Secret Attack on America (2012)

National Geographic - Hitlers Secret Attack on America (2012)

National Geographic - Hitlers Secret Attack on America (2012)

Welcome to my blog - daily update!