Tags
Language
Tags

Fast & Furious : Hobbs & Shaw (2019)

Posted By: JohnSmith
1080p (FullHD) / WEB-DL IMDb
Fast & Furious : Hobbs & Shaw (2019)

Fast & Furious Presents: Hobbs & Shaw (2019)
WEB-DL 1080p | MKV / AVC@1657 kb/s | 1920x800 | 2h 15mn | Français MD (VFF): MP3, 128 kb/s (2 ch) | 3.59 GB
Genre: Action | Adventure

Depuis que Hobbs, fidèle agent de sécurité au service diplomatique des Etats-Unis, combatif mais droit, et Shaw, un homme sans foi ni loi, ancien membre de l’élite militaire britannique, se sont affrontés en 2015 dans Fast & Furious 7 ; les deux hommes font tout ce qu’ils peuvent pour se nuire l’un à l’autre.
Mais lorsque Brixton, un anarchiste génétiquement modifié, met la main sur une arme de destruction massive après avoir battu le meilleur agent du MI6 qui se trouve être la sœur de Shaw. Les deux ennemis de longue date vont devoir alors faire équipe pour faire tomber le seul adversaire capable de les anéantir.


General
Unique ID : 109591643720711055076855672286769761741 (0x5272953452A6F084C3F3D4CD361ECDCD)
Complete name : C:\Hobbs.And.Shaw.2019.TRUEFRENCH.1080p.MD.HDRiP.mkv
Format : Matroska
Format version : Version 4
File size : 3.59 GiB
Duration : 2 h 15 min
Overall bit rate : 3 787 kb/s
Encoded date : UTC 2019-09-27 10:51:09
Writing application : mkvmerge v33.1.0 ('Primrose') 32-bit
Writing library : libebml v1.3.7 + libmatroska v1.5.0

Video
ID : 1
Format : AVC
Format/Info : Advanced Video Codec
Format profile : High@L4.1
Format settings : CABAC / 4 Ref Frames
Format settings, CABAC : Yes
Format settings, Reference : 4 frames
Codec ID : V_MPEG4/ISO/AVC
Duration : 2 h 15 min
Bit rate : 3 657 kb/s
Width : 1 920 pixels
Height : 800 pixels
Display aspect ratio : 2.40:1
Frame rate mode : Constant
Frame rate : 23.976 (24000/1001) FPS
Color space : YUV
Chroma subsampling : 4:2:0
Bit depth : 8 bits
Scan type : Progressive
Bits/(Pixel*Frame) : 0.099
Stream size : 3.47 GiB (97%)
Language : French
Default : Yes
Forced : No
Color range : Limited
Color primaries : BT.709
Transfer characteristics : BT.709
Matrix coefficients : BT.709

Audio
ID : 2
Format : MPEG Audio
Format version : Version 1
Format profile : Layer 3
Codec ID : A_MPEG/L3
Codec ID/Hint : MP3
Duration : 2 h 15 min
Bit rate mode : Constant
Bit rate : 128 kb/s
Channel(s) : 2 channels
Sampling rate : 44.1 kHz
Frame rate : 38.281 FPS (1152 SPF)
Compression mode : Lossy
Stream size : 124 MiB (3%)
Language : French
Default : Yes
Forced : No




Screenshots

Fast & Furious : Hobbs & Shaw (2019)

Fast & Furious : Hobbs & Shaw (2019)

Fast & Furious : Hobbs & Shaw (2019)