Tags
Language
Tags

BBC The Culture Show - Holbein: Eye of the Tudors (2015)

Posted By: Tutorial
1080p (FullHD) / HDTV
BBC The Culture Show - Holbein: Eye of the Tudors (2015)

BBC The Culture Show - Holbein: Eye of the Tudors (2015)
HDTV | 1920 x 1080 | .MP4/AVC @ 3878 Kbps | 1h 2mn | 1.69 GB
Audio: English AAC 129 Kbps, 2 channels | Subs: English
Genre: Documentary

As Henry VIII's court painter, Hans Holbein witnessed and recorded the most notorious era in English history.
He painted most of the major characters of the age and created the famous image of the king himself that everyone still recognises today. But who really was Holbein? Where did he come from? And what were the dark and unsettling secrets hidden in his art?
Waldemar Januszczak looks at the life and work of an artist who became famous for bringing the Tudor age to life, but who could have been so many other things.

General
Complete name : BBC.The.Culture.Show.2015.Holbein.Eye.of.the.Tudors.mp4
Format : MPEG-4
Format profile : Base Media
Codec ID : isom
File size : 1.69 GiB
Duration : 1h 0mn
Overall bit rate mode : Variable
Overall bit rate : 4 011 Kbps
Encoded date : UTC 2016-09-20 18:19:37
Tagged date : UTC 2016-09-20 18:19:37

Video
ID : 1
Format : AVC
Format/Info : Advanced Video Codec
Format profile : High@L4.1
Format settings, CABAC : Yes
Format settings, ReFrames : 4 frames
Codec ID : avc1
Codec ID/Info : Advanced Video Coding
Duration : 1h 0mn
Bit rate : 3 878 Kbps
Maximum bit rate : 21.8 Mbps
Width : 1 920 pixels
Height : 1 080 pixels
Display aspect ratio : 16:9
Frame rate mode : Constant
Frame rate : 25.000 fps
Color space : YUV
Chroma subsampling : 4:2:0
Bit depth : 8 bits
Scan type : Progressive
Bits/(Pixel*Frame) : 0.075
Stream size : 1.63 GiB (97%)
Title : 264:fps=25.0@GPAC0.6.1-rev0-g72d766c-master
Writing library : x264 core 148 r2705 3f5ed56
Encoding settings : cabac=1 / ref=4 / deblock=1:0:0 / analyse=0x3:0x113 / me=umh / subme=9 / psy=1 / psy_rd=1.00:0.00 / mixed_ref=1 / me_range=32 / chroma_me=1 / trellis=1 / 8x8dct=1 / cqm=0 / deadzone=21,11 / fast_pskip=0 / chroma_qp_offset=-2 / threads=3 / lookahead_threads=1 / sliced_threads=0 / nr=0 / decimate=1 / interlaced=0 / bluray_compat=0 / constrained_intra=0 / bframes=5 / b_pyramid=2 / b_adapt=2 / b_bias=0 / direct=1 / weightb=1 / open_gop=0 / weightp=2 / keyint=250 / keyint_min=25 / scenecut=40 / intra_refresh=0 / rc_lookahead=40 / rc=crf / mbtree=1 / crf=21.5 / qcomp=0.60 / qpmin=0 / qpmax=69 / qpstep=4 / ip_ratio=1.40 / aq=1:1.00
Encoded date : UTC 2016-09-20 17:57:15
Tagged date : UTC 2016-09-20 18:21:24

Audio
ID : 2
Format : AAC
Format/Info : Advanced Audio Codec
Format profile : LC
Codec ID : 40
Duration : 1h 0mn
Bit rate mode : Variable
Bit rate : 129 Kbps
Maximum bit rate : 168 Kbps
Channel(s) : 2 channels
Channel positions : Front: L R
Sampling rate : 48.0 KHz
Compression mode : Lossy
Stream size : 55.5 MiB (3%)
Title : English
Language : English
Encoded date : UTC 2016-09-20 12:01:25
Tagged date : UTC 2016-09-20 18:21:24
Material_Duration : 3609920
Material_StreamSize : 58230637

Text
ID : 3
Format : Timed text
Codec ID : tx3g
Duration : 59mn 45s
Bit rate mode : Variable
Bit rate : 75 bps
Stream size : 32.7 KiB (0%)
Title : English
Language : English
Encoded date : UTC 2016-09-20 18:21:24
Tagged date : UTC 2016-09-20 18:21:24
Screenshots

BBC The Culture Show - Holbein: Eye of the Tudors (2015)

BBC The Culture Show - Holbein: Eye of the Tudors (2015)

BBC The Culture Show - Holbein: Eye of the Tudors (2015)

BBC The Culture Show - Holbein: Eye of the Tudors (2015)

Welcome to my blog - daily update!

BBC The Culture Show - Holbein: Eye of the Tudors (2015)