Tags
Language
Tags
March 2024
Su Mo Tu We Th Fr Sa
25 26 27 28 29 1 2
3 4 5 6 7 8 9
10 11 12 13 14 15 16
17 18 19 20 21 22 23
24 25 26 27 28 29 30
31 1 2 3 4 5 6

Chronos-Film - Holocaust: Concentration Camps - Ravensbruck and Buchenwald (2006)

Posted By: notbanned
SD / DVDRip
Chronos-Film - Holocaust: Concentration Camps - Ravensbruck and Buchenwald (2006)

Chronos-Film - Holocaust: Concentration Camps - Ravensbruck and Buchenwald (2006)
DVDRip | 768x576 | .MP4/AVC @ 1959 Kbps | 1 h 2 min | 940 MiB
Audio: English AAC 165 kbps, 2 channels | Subs: None
Genre: Documentary | Drama | History | War

After being established in the Summer of 1937, Buchenwald soon developed into one of the largest concentration camps in Germany, in its eight years of existence,approximately 250,000 inmates from 35 countries were imprisoned here, More than 50,000 of them died during the camps reign of terror. They were systematically culled.The inmates were submitted to the life of slaves, working for the S.S. and the Third Reich. They were deliberately made to suffer by hunger and beatings until death, and were easily replaced by a regular influx of new prisioners using many previously unpublished photographic documents and statements by witnesses to the events, this film documentry reconstructs the history of the camp.

General
Complete name : Holocaust.Concentration.Camps.Ravensbruck.and.Buchenwald.mp4
Format : MPEG-4
Format profile : Base Media
Codec ID : isom (isom)
File size : 940 MiB
Duration : 1 h 2 min
Overall bit rate mode : Variable
Overall bit rate : 2 115 kb/s

Video
ID : 1
Format : AVC
Format/Info : Advanced Video Codec
Format profile : Main@L3.1
Format settings, CABAC : Yes
Format settings, ReFrames : 1 frame
Codec ID : avc1
Codec ID/Info : Advanced Video Coding
Duration : 1 h 2 min
Source duration : 1 h 2 min
Bit rate : 1 959 kb/s
Maximum bit rate : 5 824 kb/s
Width : 768 pixels
Height : 576 pixels
Display aspect ratio : 4:3
Frame rate mode : Variable
Frame rate : 25.000 FPS
Minimum frame rate : 5.208 FPS
Maximum frame rate : 25.000 FPS
Color space : YUV
Chroma subsampling : 4:2:0
Bit depth : 8 bits
Scan type : Progressive
Bits/(Pixel*Frame) : 0.177
Stream size : 865 MiB (92%)
Source stream size : 865 MiB (92%)
Writing library : x264 core 129
Encoding settings : cabac=1 / ref=1 / deblock=1:0:0 / analyse=0x1:0x131 / me=dia / subme=2 / psy=1 / psy_rd=1.00:0.00 / mixed_ref=0 / me_range=16 / chroma_me=1 / trellis=0 / 8x8dct=0 / cqm=0 / deadzone=21,11 / fast_pskip=1 / chroma_qp_offset=0 / threads=8 / lookahead_threads=1 / sliced_threads=0 / nr=0 / decimate=1 / interlaced=0 / bluray_compat=0 / constrained_intra=0 / bframes=0 / weightp=2 / keyint=250 / keyint_min=25 / scenecut=40 / intra_refresh=0 / rc_lookahead=40 / rc=abr / mbtree=1 / bitrate=1959 / ratetol=1.0 / qcomp=0.60 / qpmin=10 / qpmax=51 / qpstep=4 / ip_ratio=1.41 / aq=1:1.00
Tagged date : UTC 2018-01-23 16:00:49

Audio
ID : 2
Format : AAC
Format/Info : Advanced Audio Codec
Format profile : LC
Codec ID : 40
Duration : 1 h 2 min
Bit rate mode : Variable
Bit rate : 165 kb/s
Maximum bit rate : 210 kb/s
Channel(s) : 2 channels
Channel positions : Front: L R
Sampling rate : 48.0 kHz
Frame rate : 46.875 FPS (1024 spf)
Compression mode : Lossy
Stream size : 73.5 MiB (8%)
Default : Yes
Alternate group : 1
Tagged date : UTC 2018-01-23 16:00:49


Screenshots:

Chronos-Film - Holocaust: Concentration Camps - Ravensbruck and Buchenwald (2006)

Chronos-Film - Holocaust: Concentration Camps - Ravensbruck and Buchenwald (2006)

Chronos-Film - Holocaust: Concentration Camps - Ravensbruck and Buchenwald (2006)

Chronos-Film - Holocaust: Concentration Camps - Ravensbruck and Buchenwald (2006)