Homegrown Christmas (2018)

Posted By: Without
1080p (FullHD) / WEB-DL IMDb
Homegrown Christmas (2018)

Homegrown Christmas (2018)
WEB-DL 720p | MKV | 1 h 28 min | 2.40 GB | 1280x720 | AVC@3235 kb/s | English AC3@640 kb/s
WEB-DL 1080p | MKV | 1 h 28 min | 4.80 GB | 1920x1080 | AVC@7114 kb/s | English AC3@640 kb/s
Subs: English
Genre: Romance

After stepping down as CEO of her dream job, Maddie (Lori Loughlin) heads home for the holidays to gain perspective. She finds herself running into her old high school sweetheart Carter (Victor Webster), and tensions quickly arise. When forced to put together a Christmas dance for the local high school, Carter and Maddie find themselves putting their differences aside and rediscover what made them fall in love all those years ago.



General
Homegrown.Christmas.2018.720p.AMZN.WEB-DL.DDP5.1.H.264-ABM.mkv
Format : Matroska
Format version : Version 4 / Version 2
File size : 2.40 GB
Duration : 1 h 28 min
Overall bit rate : 3877 kb/s
Encoded date : UTC 2019-11-08 03:50:17
Writing application : mkvmerge v24.0.0 ('Beyond The Pale') 64-bit
Writing library : libebml v1.3.6 + libmatroska v1.4.9

Video
ID : 1
Format : AVC
Format/Info : Advanced Video Codec
Format profile : High@L3.1
Format settings, CABAC : Yes
Format settings, ReFrames : 4 frames
Codec ID : V_MPEG4/ISO/AVC
Duration : 1 h 28 min
Bit rate mode : Constant
Bit rate : 3235 kb/s
Nominal bit rate : 6000 kb/s
Width : 1280 pixels
Height : 720 pixels
Display aspect ratio : 16:9
Frame rate mode : Constant
Frame rate : 23.976 (24000/1001) FPS
Color space : YUV
Chroma subsampling : 4:2:0
Bit depth : 8 bits
Scan type : Progressive
Bits/(Pixel*Frame) : 0.146
Stream size : 2.00 GB (83%)
Language : English
Default : Yes
Forced : No
Color range : Limited
Color primaries : BT.709
Transfer characteristics : BT.709
Matrix coefficients : BT.709

Audio
ID : 2
Format : E-AC-3
Format/Info : Enhanced Audio Coding 3
Format settings, Endianness : Big
Codec ID : A_EAC3
Duration : 1 h 28 min
Bit rate mode : Constant
Bit rate : 640 kb/s
Channel(s) : 6 channels
Channel positions : Front: L C R, Side: L R, LFE
Sampling rate : 48.0 kHz
Frame rate : 187.500 FPS (256 spf)
Compression mode : Lossy
Stream size : 406 MB (17%)
Language : English
Default : Yes
Forced : No

Text
ID : 3
Format : UTF-8
Codec ID : S_TEXT/UTF8
Codec ID/Info : UTF-8 Plain Text
Duration : 1 h 27 min
Bit rate : 95 b/s
Count of elements : 1811
Stream size : 61.1 KiB (0%)
Language : English
Default : No
Forced : No


General
Homegrown.Christmas.2018.1080p.AMZN.WEB-DL.DDP5.1.H.264-ABM.mkv
Format : Matroska
Format version : Version 4 / Version 2
File size : 4.80 GB
Duration : 1 h 28 min
Overall bit rate : 7756 kb/s
Encoded date : UTC 2019-11-08 03:50:02
Writing application : mkvmerge v24.0.0 ('Beyond The Pale') 64-bit
Writing library : libebml v1.3.6 + libmatroska v1.4.9

Video
ID : 1
Format : AVC
Format/Info : Advanced Video Codec
Format profile : High@L4
Format settings, CABAC : Yes
Format settings, ReFrames : 4 frames
Codec ID : V_MPEG4/ISO/AVC
Duration : 1 h 28 min
Bit rate mode : Constant
Bit rate : 7114 kb/s
Nominal bit rate : 10000 kb/s
Width : 1920 pixels
Height : 1080 pixels
Display aspect ratio : 16:9
Frame rate mode : Constant
Frame rate : 23.976 (24000/1001) FPS
Color space : YUV
Chroma subsampling : 4:2:0
Bit depth : 8 bits
Scan type : Progressive
Bits/(Pixel*Frame) : 0.143
Stream size : 4.41 GB (92%)
Language : English
Default : Yes
Forced : No
Color range : Limited
Color primaries : BT.709
Transfer characteristics : BT.709
Matrix coefficients : BT.709

Audio
ID : 2
Format : E-AC-3
Format/Info : Enhanced Audio Coding 3
Format settings, Endianness : Big
Codec ID : A_EAC3
Duration : 1 h 28 min
Bit rate mode : Constant
Bit rate : 640 kb/s
Channel(s) : 6 channels
Channel positions : Front: L C R, Side: L R, LFE
Sampling rate : 48.0 kHz
Frame rate : 187.500 FPS (256 spf)
Compression mode : Lossy
Stream size : 406 MB (8%)
Language : English
Default : Yes
Forced : No

Text
ID : 3
Format : UTF-8
Codec ID : S_TEXT/UTF8
Codec ID/Info : UTF-8 Plain Text
Duration : 1 h 27 min
Bit rate : 95 b/s
Count of elements : 1811
Stream size : 61.1 KiB (0%)
Language : English
Default : No
Forced : No



WEB-DL 720p Screenshots

Homegrown Christmas (2018)

Homegrown Christmas (2018)

Homegrown Christmas (2018)


WEB-DL 1080p Screenshots

Homegrown Christmas (2018)

Homegrown Christmas (2018)

Homegrown Christmas (2018)


Come Visit My Blog (•‿•)