Hot Dog (2018)

Posted By: Tavaz
1080p (FullHD) / BDRip IMDb
Hot Dog (2018)

Hot Dog (2018)
BDRip | MKV | 1920x800 | German | H264 @ 7992 kbps | DTS @ 1509 kbps | 1 h 45 min | 7.03 GiB
Subtitles: Chinese
Genre: Action, Comedy

Theo und Luke könnten gegensätzlicher nicht seien: Für den einen ist Gewalt ein adäquates Mittel, wenn es um die Lösung seiner Probleme geht. Der andere vertraut da eher auf seine mentale Stärke. Nichtsdestotrotz verbünden sich der ehemalige GSG-10-Beamte und der Sicherheitsmann als es darum geht die verschleppte Tochter eines moldawischen Botschafters zu finden und zu befreien. Schnell wird Theo und Luke klar: Die Entführung ist nur ein kleiner Teil einer großes Verschwörung.

Hot.Dog.2018.GER.BluRay.1080p.DTS.x264-CHD.mkv (7.0 GB)



General
Unique ID : 221737066459392574325286512629267893842 (0xA6D1016F7DC7C1CFB309F1858FE10E52)
Complete name : ./Hot.Dog.2018.GER.BluRay.1080p.DTS.x264-CHD.mkv
Format : Matroska
Format version : Version 2
File size : 7.03 GiB
Duration : 1 h 45 min
Overall bit rate : 9 543 kb/s
Movie name : HOT_DOG.Title1_2
Encoded date : UTC 2018-10-22 06:17:30
Writing application : DVDFab 10.2.1.7
Writing library : libebml v1.3.4 + libmatroska v1.4.5

Video
ID : 1
Format : AVC
Format/Info : Advanced Video Codec
Format profile : High@L4
Format settings : CABAC / 1 Ref Frames
Format settings, CABAC : Yes
Format settings, RefFrames : 1 frame
Format settings, GOP : M=1, N=24
Codec ID : V_MPEG4/ISO/AVC
Duration : 1 h 45 min
Bit rate mode : Constant
Bit rate : 7 992 kb/s
Width : 1 920 pixels
Height : 800 pixels
Display aspect ratio : 2.40:1
Frame rate mode : Constant
Frame rate : 23.976 (24000/1001) FPS
Color space : YUV
Chroma subsampling : 4:2:0
Bit depth : 8 bits
Scan type : Progressive
Bits/(Pixel*Frame) : 0.217
Stream size : 5.88 GiB (84%)
Default : Yes
Forced : No
Color range : Limited
Color primaries : BT.709
Transfer characteristics : BT.709
Matrix coefficients : BT.709

Audio
ID : 2
Format : DTS
Format/Info : Digital Theater Systems
Mode : 16
Format settings, Endianness : Big
Codec ID : A_DTS
Duration : 1 h 45 min
Bit rate mode : Constant
Bit rate : 1 509 kb/s
Channel(s) : 6 channels
Channel positions : Front: L C R, Side: L R, LFE
Sampling rate : 48.0 kHz
Frame rate : 93.750 FPS (512 SPF)
Bit depth : 24 bits
Compression mode : Lossy
Stream size : 1.11 GiB (16%)
Language : German
Default : Yes
Forced : No

Text #1
ID : 3
Format : PGS
Codec ID : S_HDMV/PGS
Codec ID/Info : Picture based subtitle format used on BDs/HD-DVDs
Duration : 1 h 44 min
Bit rate : 26.1 kb/s
Count of elements : 3032
Stream size : 19.5 MiB (0%)
Language : Chinese
Default : No
Forced : No

Text #2
ID : 4
Format : PGS
Codec ID : S_HDMV/PGS
Codec ID/Info : Picture based subtitle format used on BDs/HD-DVDs
Duration : 1 h 44 min
Bit rate : 27.1 kb/s
Count of elements : 3034
Stream size : 20.2 MiB (0%)
Language : Chinese
Default : No
Forced : No

Menu
00:00:00.000 : en:(01)00:00:00:000
00:10:09.984 : en:(02)00:10:09:984
00:18:15.176 : en:(03)00:18:15:176
00:28:49.185 : en:(04)00:28:49:185
00:37:41.676 : en:(05)00:37:41:676
00:46:10.516 : en:(06)00:46:10:516
00:55:33.913 : en:(07)00:55:33:913
01:03:30.598 : en:(08)01:03:30:598
01:12:27.051 : en:(09)01:12:27:051
01:19:02.863 : en:(10)01:19:02:863
01:26:47.118 : en:(11)01:26:47:118
01:36:04.091 : en:(12)01:36:04:091





Hot Dog (2018)


Hot Dog (2018)


Hot Dog (2018)


Hot Dog (2018)


Hot Dog (2018)